<?xml version="1.0" standalone="no"?>
<!DOCTYPE svg PUBLIC "-//W3C//DTD SVG 1.1//EN" "http://www.w3.org/Graphics/SVG/1.1/DTD/svg11.dtd">
<svg xmlns="http://www.w3.org/2000/svg">
<metadata>Generated by Fontastic.me</metadata>
<defs>
<font id="linea-icons" horiz-adv-x="512">
<font-face font-family="linea-icons" units-per-em="512" ascent="480" descent="-32"/>
<missing-glyph horiz-adv-x="512" />

<glyph unicode="&#97;" d="M32 511c17 0 31-14 31-31 0-17-14-31-31-31m0 62c-17 0-31-14-31-31 0-7 2-13 6-18l5-6m1 11l0-11-11 0"/>
<glyph unicode="&#57437;" d="M408 312c0 70-48 129-112 146l0 54-80 0 0-54c-64-17-112-76-112-146l0-149-56-56 0-43 128 0c4-36 35-64 72-64 37 0 68 28 72 64l144 0 0 43-56 56z m-16-120l-272 0 0 32 272 0z m-160 304l48 0 0-34c-8 1-16 2-24 2-8 0-16-1-24-2z m24-48c75 0 136-61 136-136l0-72-272 0 0 72c0 75 61 136 136 136z m-8-432c-28 0-51 21-55 48l110 0c-4-27-27-48-55-48z m200 85l0-21-384 0 0 21 56 56 0 19 272 0 0-19z"/>
<glyph unicode="&#57438;" d="M256 512c-68 0-133-27-181-75-48-48-75-113-75-181 0-68 27-133 75-181 48-48 113-75 181-75 0 0 0 0 0 0l0 0c141 0 256 115 256 256 0 68-27 133-75 181-48 48-113 75-181 75z m-170-86c16 15 34 29 53 39l91-159c-5-3-10-6-14-10-4-4-7-9-9-14l-157 97c10 17 22 33 36 47z m170-210c-11 0-21 4-28 12-16 15-16 41 0 56 7 8 17 12 28 12 11 0 21-4 28-12 16-15 16-41 0-56-7-8-17-12-28-12z m0-200l0-8 0 8c0 0 0 0 0 0-64 0-124 25-170 70-45 46-70 106-70 170 0 39 9 76 26 109l159-98c-3-18 2-37 15-51 11-10 25-16 40-16 4 0 7 0 11 1l98-159c-33-16-69-26-109-26z m123 34l-97 157c5 2 10 5 14 9 4 4 7 9 9 14l157-97c-20-34-49-63-83-83z m91 97l-159 98c3 18-2 37-15 51-11 10-25 16-40 16-4 0-7 0-11-1l-92 162c32 15 67 23 103 23 64 0 124-25 170-70 45-46 70-106 70-170 0-39-10-76-26-109z"/>
<glyph unicode="&#57443;" d="M424 256l-8 0 0 40c0 1-2 136-160 136-158 0-160-135-160-136l0-40-8 0c-49 0-88-39-88-88 0-49 39-88 88-88l24 0 0 216c0 5 2 120 144 120 142 0 144-115 144-120l0-216 24 0c49 0 88 39 88 88 0 49-39 88-88 88z m-328-160l-8 0c-40 0-72 32-72 72 0 40 32 72 72 72l8 0z m328 0l-8 0 0 144 8 0c40 0 72-32 72-72 0-40-32-72-72-72z"/>
<glyph unicode="&#57444;" d="M120 0l272 0 0 512-272 0z m16 16l0 200 240 0 0-200z m0 216l0 232 240 0 0-232z m240 264l0-16-240 0 0 16z m-124-296c-46 0-84-38-84-84 0-46 38-84 84-84 46 0 84 38 84 84 0 46-38 84-84 84z m0-152c-37 0-68 31-68 68 0 37 31 68 68 68 37 0 68-31 68-68 0-37-31-68-68-68z m0 96c-15 0-28-13-28-28 0-15 13-28 28-28 15 0 28 13 28 28 0 15-13 28-28 28z m0-40c-7 0-12 5-12 12 0 7 5 12 12 12 7 0 12-5 12-12 0-7-5-12-12-12z"/>
<glyph unicode="&#57445;" d="M88 0l336 0 0 512-336 0z m16 496l304 0 0-480-304 0z m152-216c-57 0-104-47-104-104 0-57 47-104 104-104 57 0 104 47 104 104 0 57-47 104-104 104z m0-192c-49 0-88 39-88 88 0 49 39 88 88 88 49 0 88-39 88-88 0-49-39-88-88-88z m0 240c31 0 56 25 56 56 0 31-25 56-56 56-31 0-56-25-56-56 0-31 25-56 56-56z m0 96c22 0 40-18 40-40 0-22-18-40-40-40-22 0-40 18-40 40 0 22 18 40 40 40z m0-220c-15 0-28-13-28-28 0-15 13-28 28-28 15 0 28 13 28 28 0 15-13 28-28 28z m0-40c-7 0-12 5-12 12 0 7 5 12 12 12 7 0 12-5 12-12 0-7-5-12-12-12z"/>
<glyph unicode="&#57447;" d="M136 304l-16 0c0-66 62-131 128-136l0-152-112 0 0-16 240 0 0 16-112 0 0 152c66 5 128 70 128 136l-16 0c0-59-61-120-120-120-59 0-120 61-120 120z m192-8l0 144c0 40-32 72-72 72-40 0-72-32-72-72l0-144c0-40 32-72 72-72 40 0 72 32 72 72z m-128 0l0 24 32 0 0 16-32 0 0 64 32 0 0 16-32 0 0 24c0 31 25 56 56 56 31 0 56-25 56-56l0-24-32 0 0-16 32 0 0-64-32 0 0-16 32 0 0-24c0-31-25-56-56-56-31 0-56 25-56 56z"/>
<glyph unicode="&#57448;" d="M0 0l512 0 0 512-512 0z m16 496l480 0 0-480-480 0z m120-64l-16 0 0-24-40 0 0-16 40 0 0-312 16 0 0 312 40 0 0 16-40 0z m256 0l-16 0 0-312-40 0 0-16 40 0 0-24 16 0 0 24 40 0 0 16-40 0z m-128 0l-16 0 0-168-40 0 0-16 40 0 0-168 16 0 0 168 40 0 0 16-40 0z"/>
<glyph unicode="&#57449;" d="M280-3l0 518-155-155-101 0 0-208 101 0z m-240 347l91 0 133 133 0-442-133 133-91 0z m434-10l-66-67-66 67-12-12 67-66-67-66 12-12 66 67 66-67 12 12-67 66 67 66z"/>
<glyph unicode="&#57450;" d="M368 192c-40 0-72-32-72-72 0-40 32-72 72-72 40 0 72 32 72 72l0 394-240-52 0-345c-13 17-33 27-56 27-40 0-72-32-72-72 0-40 32-72 72-72 40 0 72 32 72 72l0 250 208 44 0-201c-13 17-33 27-56 27z m-224-176c-31 0-56 25-56 56 0 31 25 56 56 56 31 0 56-25 56-56 0-31-25-56-56-56z m72 322l0 112 208 44 0-112z m152-274c-31 0-56 25-56 56 0 31 25 56 56 56 31 0 56-25 56-56 0-31-25-56-56-56z"/>
<glyph unicode="&#57451;" d="M248 72l0 266 160 48 0 129-176-53 0-345c-13 17-33 27-56 27-40 0-72-32-72-72 0-40 32-72 72-72 40 0 72 32 72 72z m0 378l144 43 0-95-144-43z m-128-378c0 31 25 56 56 56 31 0 56-25 56-56 0-31-25-56-56-56-31 0-56 25-56 56z"/>
<glyph unicode="&#57452;" d="M192 328l16 0 0-144-16 0z m104 0l16 0 0-144-16 0z m-40 184c-68 0-133-27-181-75-48-48-75-113-75-181 0-68 27-133 75-181 48-48 113-75 181-75 68 0 133 27 181 75 48 48 75 113 75 181 0 68-27 133-75 181-48 48-113 75-181 75z m170-426c-46-45-106-70-170-70-64 0-124 25-170 70-45 46-70 106-70 170 0 64 25 124 70 170 46 45 106 70 170 70 64 0 124-25 170-70 45-46 70-106 70-170 0-64-25-124-70-170z"/>
<glyph unicode="&#57453;" d="M208 344l0-176 14-6 114 88 0 12-114 88z m16-16l91-72-91-72z m32 184c-68 0-133-27-181-75-48-48-75-113-75-181 0-68 27-133 75-181 48-48 113-75 181-75 68 0 133 27 181 75 48 48 75 113 75 181 0 68-27 133-75 181-48 48-113 75-181 75z m170-426c-46-45-106-70-170-70-64 0-124 25-170 70-45 46-70 106-70 170 0 64 25 124 70 170 46 45 106 70 170 70 64 0 124-25 170-70 45-46 70-106 70-170 0-64-25-124-70-170z"/>
<glyph unicode="&#57457;" d="M256 512c-68 0-133-27-181-75-48-48-75-113-75-181 0-68 27-133 75-181 48-48 113-75 181-75 0 0 0 0 0 0l0 0c141 0 256 115 256 256 0 68-27 133-75 181-48 48-113 75-181 75z m0-496l0-8 0 8c0 0 0 0 0 0-64 0-124 25-170 70-45 46-70 106-70 170 0 64 25 124 70 170 46 45 106 70 170 70 64 0 124-25 170-70 45-46 70-106 70-170 0-132-104-240-240-240z m0 312c-40 0-72-32-72-72 0-40 32-72 72-72 40 0 72 32 72 72 0 40-32 72-72 72z m0-128c-31 0-56 25-56 56 0 31 25 56 56 56 31 0 56-25 56-56 0-31-25-56-56-56z m0-80l0 16c-66 0-120 54-120 120l-16 0c0-75 61-136 136-136z m0 272l0-16c66 0 120-54 120-120l16 0c0 75-61 136-136 136z m-176-136l-16 0c0-106 88-192 192-192l0 16c-96 0-176 79-176 176z m176 192l0-16c97 0 176-79 176-176l16 0c0 106-86 192-192 192z"/>
<glyph unicode="&#57459;" d="M440 211l-42 43-12-13 56-57 12 0 56 57-12 12-42-42 0 181-392 0 0-16 376 0z m-384 90l0-181 392 0 0 16-376 0 0 165 42-43 12 13-56 57-12 0-56-57 12-12z"/>
<glyph unicode="&#57460;" d="M104 262l0-12 114-88 14 6 0 176-14 6z m112-78l-91 72 91 72z m48 78l0-12 114-88 14 6 0 176-14 6z m112-78l-91 72 91 72z m-120 328c-68 0-133-27-181-75-48-48-75-113-75-181 0-68 27-133 75-181 48-48 113-75 181-75 68 0 133 27 181 75 48 48 75 113 75 181 0 68-27 133-75 181-48 48-113 75-181 75z m170-426c-46-45-106-70-170-70-64 0-124 25-170 70-45 46-70 106-70 170 0 64 25 124 70 170 46 45 106 70 170 70 64 0 124-25 170-70 45-46 70-106 70-170 0-64-25-124-70-170z"/>
<glyph unicode="&#57461;" d="M194 298l12 12-83 82-123 0 0-16 117 0z m248 136l43-42-112 0-256-256-117 0 0-16 123 0 256 256 106 0-43-42 13-12 57 56 0 12-57 56z m0-256l43-42-106 0-77 78-12-12 83-82 112 0-43-42 13-12 57 56 0 12-57 56z"/>
<glyph unicode="&#57462;" d="M176 344l-8-8 0-160 8-8 160 0 8 8 0 160-8 8z m152-160l-144 0 0 144 144 0z m-72 328c-68 0-133-27-181-75-48-48-75-113-75-181 0-68 27-133 75-181 48-48 113-75 181-75 68 0 133 27 181 75 48 48 75 113 75 181 0 68-27 133-75 181-48 48-113 75-181 75z m170-426c-46-45-106-70-170-70-64 0-124 25-170 70-45 46-70 106-70 170 0 64 25 124 70 170 46 45 106 70 170 70 64 0 124-25 170-70 45-46 70-106 70-170 0-64-25-124-70-170z"/>
<glyph unicode="&#57463;" d="M0 80l512 0 0 352-512 0z m67 16l19 64 340 0 19-64z m-51 320l480 0 0-320-34 0-24 80-364 0-24-80-34 0z m112-96c-31 0-56-25-56-56 0-31 25-56 56-56 31 0 56 25 56 56 0 31-25 56-56 56z m0-96c-22 0-40 18-40 40 0 22 18 40 40 40 22 0 40-18 40-40 0-22-18-40-40-40z m256 96c-31 0-56-25-56-56 0-31 25-56 56-56 31 0 56 25 56 56 0 31-25 56-56 56z m0-96c-22 0-40 18-40 40 0 22 18 40 40 40 22 0 40-18 40-40 0-22-18-40-40-40z m104 176l-456 0 0-48 456 0z m-16-32l-424 0 0 16 424 0z m-272-136l112 0 0 64-112 0z m16 48l80 0 0-32-80 0z"/>
<glyph unicode="&#57464;" d="M312-3l0 518-155-155-101 0 0-208 101 0z m-240 347l91 0 133 133 0-442-133 133-91 0z m296-160l0-16c49 0 88 39 88 88 0 49-39 88-88 88l0-16c40 0 72-32 72-72 0-40-32-72-72-72z"/>
<glyph unicode="&#57465;" d="M272-3l0 518-155-155-101 0 0-208 101 0z m-240 347l91 0 133 133 0-442-133 133-91 0z m296-160l0-16c49 0 88 39 88 88 0 49-39 88-88 88l0-16c40 0 72-32 72-72 0-40-32-72-72-72z m0-96c93 0 168 75 168 168 0 93-75 168-168 168l0-16c84 0 152-68 152-152 0-84-68-152-152-152z"/>
<glyph unicode="&#57466;" d="M440 0l-368 0 0 376 368 0z m-352 16l336 0 0 344-336 0z m256 304l-16 0 0 104c0 40-32 72-72 72-40 0-72-32-72-72l0-104-16 0 0 104c0 49 39 88 88 88 49 0 88-39 88-88z"/>
<glyph unicode="&#57467;" d="M440 0l-368 0 0 376 368 0z m-352 16l336 0 0 344-336 0z m158 114l-12 0-56 56 12 12 50-51 98 99 12-12z m98 190l-16 0 0 104c0 40-32 72-72 72-40 0-72-32-72-72l0-104-16 0 0 104c0 49 39 88 88 88 49 0 88-39 88-88z"/>
<glyph unicode="&#57469;" d="M262 98l-12 0-64 64 12 12 58-59 58 59 12-12z m-14 166l16 0 0-160-16 0z m192-264l-368 0 0 376 368 0z m-352 16l336 0 0 344-336 0z m256 304l-16 0 0 104c0 40-32 72-72 72-40 0-72-32-72-72l0-104-16 0 0 104c0 49 39 88 88 88 49 0 88-39 88-88z"/>
<glyph unicode="&#57470;" d="M440 0l-368 0 0 376 368 0z m-352 16l336 0 0 344-336 0z m96 168l144 0 0-16-144 0z m160 136l-16 0 0 104c0 40-32 72-72 72-40 0-72-32-72-72l0-104-16 0 0 104c0 49 39 88 88 88 49 0 88-39 88-88z"/>
<glyph unicode="&#57471;" d="M248 248l16 0 0-144-16 0z m-64-64l144 0 0-16-144 0z m256-184l-368 0 0 376 368 0z m-352 16l336 0 0 344-336 0z m256 304l-16 0 0 104c0 40-32 72-72 72-40 0-72-32-72-72l0-104-16 0 0 104c0 49 39 88 88 88 49 0 88-39 88-88z"/>
<glyph unicode="&#57472;" d="M288 96l-32 0c-41 0-72 42-72 80l16 0c0-30 24-64 56-64l32 0z m-18-29l-12 10 20 27-20 27 12 10 24-32 0-10z m74 109l-16 0c0 30-24 64-56 64l-32 0 0 16 32 0c41 0 72-42 72-80z m-86 35l-24 32 0 10 24 32 12-10-20-27 20-27z m182-211l-368 0 0 376 368 0z m-352 16l336 0 0 344-336 0z m256 304l-16 0 0 104c0 40-32 72-72 72-40 0-72-32-72-72l0-104-16 0 0 104c0 49 39 88 88 88 49 0 88-39 88-88z"/>
<glyph unicode="&#57473;" d="M440 0l-368 0 0 376 368 0z m-352 16l336 0 0 344-336 0z m118 222l112-112-12-12-112 112z m100 0l12-12-112-112-12 12z m38 82l-16 0 0 104c0 40-32 72-72 72-40 0-72-32-72-72l0-104-16 0 0 104c0 49 39 88 88 88 49 0 88-39 88-88z"/>
<glyph unicode="&#57474;" d="M232 144c-31 0-56 25-56 56 0 31 25 56 56 56 31 0 56-25 56-56 0-31-25-56-56-56z m0 96c-22 0-40-18-40-40 0-22 18-40 40-40 22 0 40 18 40 40 0 22-18 40-40 40z m38-66l64-64-12-12-64 64z m170-174l-368 0 0 376 368 0z m-352 16l336 0 0 344-336 0z m256 304l-16 0 0 104c0 40-32 72-72 72-40 0-72-32-72-72l0-104-16 0 0 104c0 49 39 88 88 88 49 0 88-39 88-88z"/>
<glyph unicode="&#57475;" d="M314 186l-58 59-58-59-12 12 64 64 12 0 64-64z m-66 70l16 0 0-160-16 0z m192-256l-368 0 0 376 368 0z m-352 16l336 0 0 344-336 0z m256 304l-16 0 0 104c0 40-32 72-72 72-40 0-72-32-72-72l0-104-16 0 0 104c0 49 39 88 88 88 49 0 88-39 88-88z"/>
<glyph unicode="&#57476;" d="M512 120l-512 0 0 272 512 0z m-496 16l480 0 0 240-480 0z m424 16l-368 0 0 8c0 18-14 32-32 32l-8 0 0 128 8 0c18 0 32 14 32 32l0 8 368 0 0-8c0-18 14-32 32-32l8 0 0-128-8 0c-18 0-32-14-32-32z m-353 16l338 0c3 20 19 36 39 39l0 98c-20 3-36 19-39 39l-338 0c-3-20-19-36-39-39l0-98c20-3 36-19 39-39z m169 16c-40 0-72 32-72 72 0 40 32 72 72 72 40 0 72-32 72-72 0-40-32-72-72-72z m0 128c-31 0-56-25-56-56 0-31 25-56 56-56 31 0 56 25 56 56 0 31-25 56-56 56z"/>
<glyph unicode="&#57477;" d="M432 104l-432 0 0 224 432 0z m-416 16l400 0 0 192-400 0z m496 64l-72 0 0 16 56 0 0 192-400 0 0-56-16 0 0 72 432 0z m-144-48l-296 0 0 8c0 12-4 24-32 24l-8 0 0 96 8 0c28 0 32 12 32 24l0 8 296 0 0-8c0-20 13-24 24-24l8 0 0-96-8 0c-11 0-24-4-24-24z m-281 16l266 0c2 20 16 29 31 31l0 66c-15 2-29 11-31 31l-266 0c-2-15-11-29-39-32l0-64c28-3 37-17 39-32z m129 16c-26 0-48 22-48 48 0 26 22 48 48 48 26 0 48-22 48-48 0-26-22-48-48-48z m0 80c-18 0-32-14-32-32 0-18 14-32 32-32 18 0 32 14 32 32 0 18-14 32-32 32z"/>
<glyph unicode="&#57502;" d="M512 80l-512 0 0 352 512 0z m-496 16l480 0 0 320-480 0z m-8 288l496 0 0-16-496 0z m0-64l496 0 0-16-496 0z m40-176l32 0 0-16-32 0z m48 0l232 0 0-16-232 0z"/>
<glyph unicode="&#57503;" d="M256 37l-259 258 143 177 232 0 143-177z m8 419l0-389 229 230-129 159z m-245-159l229-230 0 389-100 0z m230-244l-114 242 49 171 16-4-47-165 110-238z m14 0l-14 6 110 238-47 165 16 4 49-171z m-255 251l496 0 0-16-496 0z"/>
<glyph unicode="&#57504;" d="M232 408l16 0 0-312-16 0z m32 0l16 0 0-312-16 0z m-8-272c-33 0-56 6-69 19-11 12-11 24-11 29l16 0c0-4 0-11 7-17 6-7 22-15 57-15 30 0 51 6 62 17 11 11 10 26 10 35 0 2 0 3 0 4 0 0-2 48-72 48-67 0-72 57-72 63 0 4-2 26 13 43 12 15 32 22 59 22 79 0 80-55 80-56l-16 0 8 0-8 0c0 2-2 40-64 40-22 0-38-5-47-16-11-13-9-31-9-31l0-1c0-2 1-48 56-48 86 0 88-63 88-64 0-1 0-2 0-3 0-11 1-31-14-47-15-15-39-22-74-22z m0-136c-68 0-133 27-181 75-48 48-75 113-75 181 0 68 27 133 75 181 48 48 113 75 181 75 68 0 133-27 181-75 48-48 75-113 75-181 0-68-27-133-75-181-48-48-113-75-181-75z m0 496c-64 0-124-25-170-70-45-46-70-106-70-170 0-64 25-124 70-170 46-45 106-70 170-70 64 0 124 25 170 70 45 46 70 106 70 170 0 64-25 124-70 170-46 45-106 70-170 70z"/>
<glyph unicode="&#57507;" d="M512 288l-512 0 0 88 512 0z m-496 16l480 0 0 56-480 0z m456-264l-432 0 0 264 432 0z m-416 16l400 0 0 232-400 0z m192 312l16 0 0-320-16 0z m8-8c-3 0-30 0-56 10-37 13-56 37-56 70 0 25 18 41 46 41 35 0 74-24 74-57l0-64z m-66 105c-11 0-30-4-30-25 0-53 65-62 88-64l0 48c0 23-31 41-58 41z m66-105l-8 0 0 64c0 33 39 57 74 57 28 0 46-16 46-41 0-33-19-57-56-70-26-10-53-10-56-10z m66 105c-27 0-58-18-58-41l0-48c10 1 27 3 43 9 30 11 45 29 45 55 0 21-19 25-30 25z"/>
<glyph unicode="&#57508;" d="M224 0c-60 0-116 23-158 66-43 42-66 98-66 158 0 60 23 116 65 158 43 43 99 66 159 66l8 0 0-216 216 0 0-8c0-60-23-116-66-158-42-43-98-66-158-66 0 0 0 0 0 0z m-8 432c-53-2-102-24-139-61-39-39-61-91-61-147 0-56 22-108 61-147 39-39 91-61 147-61 0 0 0 0 0 0l0 0c56 0 108 22 147 61 37 37 59 86 61 139l-216 0z m296-152l-232 0 0 232 8 0c60 0 116-23 159-66 42-42 65-98 65-158z m-216 16l200 0c-2 53-23 102-61 139-37 37-86 59-139 61z"/>
<glyph unicode="&#57509;" d="M184 0l-112 0 0 288 112 0z m-96 16l80 0 0 256-80 0z m352-16l-112 0 0 208 112 0z m-96 16l80 0 0 176-80 0z m-32-16l-112 0 0 512 112 0z m-96 16l80 0 0 480-80 0z"/>
<glyph unicode="&#57510;" d="M448 208c-18 0-32 14-32 32 0 18 14 32 32 32 18 0 32-14 32-32 0-18-14-32-32-32z m0 48c-9 0-16-7-16-16 0-9 7-16 16-16 9 0 16 7 16 16 0 9-7 16-16 16z m-272 192c-18 0-32 14-32 32 0 18 14 32 32 32 18 0 32-14 32-32 0-18-14-32-32-32z m0 48c-9 0-16-7-16-16 0-9 7-16 16-16 9 0 16 7 16 16 0 9-7 16-16 16z m144-416c-18 0-32 14-32 32 0 18 14 32 32 32 18 0 32-14 32-32 0-18-14-32-32-32z m0 48c-9 0-16-7-16-16 0-9 7-16 16-16 9 0 16 7 16 16 0 9-7 16-16 16z m-264 104c-18 0-32 14-32 32 0 18 14 32 32 32 18 0 32-14 32-32 0-18-14-32-32-32z m0 48c-9 0-16-7-16-16 0-9 7-16 16-16 9 0 16 7 16 16 0 9-7 16-16 16z m97 188l14-8-96-176-14 8z m273-239l12-10-88-96-12 10z m86-229l-512 0 0 64 512 0z m-496 16l480 0 0 32-480 0z m184 451l112-328-16-6-112 328z"/>
<glyph unicode="&#57511;" d="M184 0l-112 0 0 392 112 0z m-96 16l80 0 0 360-80 0z m352-16l-112 0 0 160 112 0z m-96 16l80 0 0 128-80 0z m-32-16l-112 0 0 264 112 0z m-96 16l80 0 0 232-80 0z m-82 494l304-304-12-12-304 304z m298-318l-88 0 0 16 80 0 0 80 16 0 0-88z"/>
<glyph unicode="&#57512;" d="M184 0l-112 0 0 160 112 0z m-96 16l80 0 0 128-80 0z m352-16l-112 0 0 376 112 0z m-96 16l80 0 0 344-80 0z m-32-16l-112 0 0 264 112 0z m-96 16l80 0 0 232-80 0z m186 494l12-12-296-296-12 12z m14-94l-16 0 0 80-80 0 0 16 88 0 8-8z"/>
<glyph unicode="&#57516;" d="M512 80l-27 0-124 96-308 0-53 53 0 102 53 53 308 0 124 96 27 0z m-21 16l5 0 0 368-5 0-124-96-308 0-43-43 0-90 43-43 308 0z m-342-64l-65 0 61 155 14-6-51-133 31 0 78 140 14-8z m187 344l16 0 0-192-16 0z m-56 0l16 0 0-192-16 0z"/>
<glyph unicode="&#57517;" d="M352 48c-88 0-160 72-160 160 0 88 72 160 160 160 88 0 160-72 160-160 0-88-72-160-160-160z m0 304c-79 0-144-65-144-144 0-79 65-144 144-144 79 0 144 65 144 144 0 79-65 144-144 144z m0-256c-62 0-112 50-112 112 0 62 50 112 112 112 62 0 112-50 112-112 0-62-50-112-112-112z m0 208c-53 0-96-43-96-96 0-53 43-96 96-96 53 0 96 43 96 96 0 53-43 96-96 96z m-40-256l-312 0 0 64 240 0 0-16-224 0 0-32 296 0z m-72 48l-224 0 0 64 200 0 0-16-184 0 0-32 208 0z m-24 48l-184 0 0 64 176 0 0-16-160 0 0-32 168 0z m-8 48l-208 0 0 64 208 0 0-16-192 0 0-32 192 0z m0 48l-192 0 0 64 216 0 0-16-200 0 0-32 176 0z m24 48l-232 0 0 64 280 0 0-16-264 0 0-32 216 0z m48 48l-264 0 0 64 312 0 0-48-16 0 0 32-280 0 0-32 248 0z m32 48l-312 0 0 64 312 0z m-296 16l280 0 0 32-280 0z"/>
<glyph unicode="&#57521;" d="M256 400l112 0 0-16-112 0z m-112-72l224 0 0-16-224 0z m0-80l224 0 0-16-224 0z m0-80l224 0 0-16-224 0z m0-80l224 0 0-16-224 0z m-56-93l0 400 117 117 219 0 0-517-40 20-32-16-32 16-32-16-32 16-32-16-32 16-32-16-32 16z m232 38l32-16 32 16 24-12 0 475-197 0-107-107 0-368 24 12 32-16 32 16 32-16 32 16 32-16z m-104 351l-120 0 0 16 104 0 0 104 16 0z"/>
<glyph unicode="&#57543;" d="M312-3l-312 312 0 203 203 0 312-312z m-296 318l296-296 181 181-296 296-181 0z m120 5c-31 0-56 25-56 56 0 31 25 56 56 56 31 0 56-25 56-56 0-31-25-56-56-56z m0 96c-22 0-40-18-40-40 0-22 18-40 40-40 22 0 40 18 40 40 0 22-18 40-40 40z"/>
<glyph unicode="&#57544;" d="M273 29l-273 272 0 179 179 0 272-273z m-257 279l257-257 156 156-257 257-156 0z m326-274l-11 12 162 161-259 259 11 12 270-271z m-230 286c-26 0-48 22-48 48 0 26 22 48 48 48 26 0 48-22 48-48 0-26-22-48-48-48z m0 80c-18 0-32-14-32-32 0-18 14-32 32-32 18 0 32 14 32 32 0 18-14 32-32 32z"/>
<glyph unicode="&#57545;" d="M192-3l-59 59 5 6c11 10 14 18 14 34 0 32-24 56-56 56-16 0-24-3-34-14l-6-5-59 59 323 323 59-59-5-6c-11-10-14-18-14-34 0-32 24-56 56-56 16 0 24 3 34 14l6 5 59-59z m-37 59l37-37 301 301-37 37c-12-10-23-13-40-13-41 0-72 31-72 72 0 17 3 28 13 40l-37 37-301-301 37-37c12 10 23 13 40 13 41 0 72-31 72-72 0-17-3-28-13-40z m59 342l32-32-12-12-32 32z m152-152l32-32-12-12-32 32z m-104 104l32-32-12-12-32 32z m56-56l32-32-12-12-32 32z"/>
<glyph unicode="&#57547;" d="M496 64l-496 0 0 336 496 0 0-96-16 0 0 80-464 0 0-304 464 0 0 80 16 0z m-56 328l-16 0 0 40-376 0 0 16 392 0z m-424 8l-16 0c0 26 22 48 48 48l0-16c-18 0-32-14-32-32z m496-248l-167 0c-44 0-80 36-80 80 0 44 36 80 80 80l167 0z m-167 144c-35 0-64-29-64-64 0-35 29-64 64-64l151 0 0 128z m7-96c-18 0-32 14-32 32 0 18 14 32 32 32 18 0 32-14 32-32 0-18-14-32-32-32z m0 48c-9 0-16-7-16-16 0-9 7-16 16-16 9 0 16 7 16 16 0 9-7 16-16 16z"/>
<glyph unicode="&#57696;" d="M256 513c-69 0-133-27-182-75-48-49-75-113-75-182 0-69 27-133 75-181 49-49 113-75 182-75 0 0 0 0 0 0l0 0c142 0 257 115 257 256 0 69-27 133-75 182-49 48-113 75-182 75z m0-498l0-8 0 9c0 0 0 0 0 0-64 0-125 25-170 70-46 46-71 106-71 170 0 65 25 125 71 170 45 46 106 71 170 71 64 0 125-25 170-71 46-45 71-106 71-170 0-133-105-241-241-241z m0 425c-49 0-95-19-130-54-35-35-54-81-54-130l16 0c0 45 17 87 49 119 32 32 74 49 119 49 45 0 87-17 119-49 32-32 49-74 49-119l16 0c0 49-19 95-54 130-35 35-81 54-130 54z m-10-186l-48 55-12-10 49-56c-2-4-3-7-3-11 0-7 3-13 7-17 5-5 11-7 17-7 6 0 12 3 17 7 9 10 9 25 0 34-7 7-18 8-27 5z m16-28c-3-3-9-3-12 0-1 2-2 4-2 6 0 2 1 4 2 6 2 1 4 2 6 2 2 0 4-1 6-2 3-3 3-8 0-12z"/>
<glyph unicode="&#57697;" d="M472 256c0 119-97 216-216 216-119 0-216-97-216-216 0-85 50-160 122-195l-48-47 12-12 52 53c24-10 50-15 78-15 28 0 54 5 78 15l52-53 12 12-48 47c72 35 122 110 122 195z m-216-200c-110 0-200 90-200 200 0 110 90 200 200 200 110 0 200-90 200-200 0-110-90-200-200-200z m8 296l-16 0 0-101 68-34 8 14-60 30z m-265 99l20-99 117 117-99 20z m105 8l-75-75-12 61 26 26z m272 10l117-117 20 99-38 38z m107-85l-75 75 61 12 26-26z"/>
<glyph unicode="&#57698;" d="M154 120l-80 24-10-6-24-80 16-4 18 61c32-70 103-115 182-115 80 0 151 46 183 117l26-64 14 6-32 80-9 5-80-24 4-16 62 19c-28-62-90-104-160-107l0 352 64 0 0 16-64 0 0 17c27 4 48 27 48 55 0 31-25 56-56 56-31 0-56-25-56-56 0-28 21-51 48-55l0-17-64 0 0-16 64 0 0-352c-70 3-132 45-160 107l62-19z m62 336c0 22 18 40 40 40 22 0 40-18 40-40 0-22-18-40-40-40-22 0-40 18-40 40z"/>
<glyph unicode="&#57699;" d="M334 190l-70 69 0 157-16 0 0-163 74-75z m-302 74l32 0 0-16-32 0z m416 0l32 0 0-16-32 0z m-200-200l16 0 0-32-16 0z m0 416l16 0 0-32-16 0z m181-40l67 0 0 16-88 0-8-8 0-88 16 0 0 71 36-36c29-41 44-89 44-139 0-132-108-240-240-240-132 0-240 108-240 240 0 132 108 240 240 240l0 16c-141 0-256-115-256-256 0-141 115-256 256-256 141 0 256 115 256 256 0 54-16 105-48 149z"/>
<glyph unicode="&#57700;" d="M480 192l-1 0-48 320-350 0-48-320-1 0 0-192 448 0z m-385 304l322 0 46-304-127 0 0-8c0-44-36-80-80-80-44 0-80 36-80 80l0 8-127 0z m369-480l-416 0 0 160 112 0c4-49 46-88 96-88 50 0 92 39 96 88l112 0z"/>
<glyph unicode="&#57701;" d="M480 192l-1 0-48 320-350 0-48-320-1 0 0-192 448 0z m-385 304l322 0 46-304-127 0 0-8c0-44-36-80-80-80-44 0-80 36-80 80l0 8-127 0z m369-480l-416 0 0 160 112 0c4-49 46-88 96-88 50 0 92 39 96 88l112 0z m-368 256l320 0 0-16-320 0z m16 80l288 0 0-16-288 0z m16 80l256 0 0-16-256 0z"/>
<glyph unicode="&#57702;" d="M256 0c68 0 133 27 181 75 48 48 75 113 75 181 0 68-27 133-75 181-48 48-113 75-181 75-68 0-133-27-181-75-48-48-75-113-75-181 0-68 27-133 75-181 48-48 113-75 181-75z m170 426c45-46 70-106 70-170 0-61-23-119-65-164l-339 339c45 42 103 65 164 65 64 0 124-25 170-70z m-345-6l339-339c-45-42-103-65-164-65-64 0-124 25-170 70-45 46-70 106-70 170 0 61 23 119 65 164z"/>
<glyph unicode="&#57707;" d="M313 508l-184-288 7-12 102 0-54-198 14-7 208 288-6 13-103 0 31 199z m-33-211l8-9 96 0-173-240 45 166-8 10-97 0 155 244z"/>
<glyph unicode="&#57708;" d="M432 512l-384 0 0-512 384 0z m-368-16l48 0 0-480-48 0z m352-480l-288 0 0 480 288 0z m-256 384l224 0 0-16-224 0z m0-48l224 0 0-16-224 0z"/>
<glyph unicode="&#57710;" d="M384 512l-384 0 0-512 384 0z m-368-16l48 0 0-480-48 0z m352-480l-288 0 0 480 288 0z m-256 384l224 0 0-16-224 0z m0-48l224 0 0-16-224 0z m400-274l0 434-80 0 0-434 40-80z m-16 418l0-64-48 0 0 64z m-48-80l48 0 0-334-24-48-24 48z"/>
<glyph unicode="&#57711;" d="M136-3l120 120 120-120 0 515-240 0z m16 499l208 0 0-461-104 104-104-104z"/>
<glyph unicode="&#57712;" d="M0 0l512 0 0 512-512 0z m16 496l480 0 0-480-480 0z m136-48l-16 0 0-72-72 0 0-16 72 0 0-72 16 0 0 72 72 0 0 16-72 0z m136-72l160 0 0-16-160 0z m-86-162l-58-59-58 59-12-12 59-58-59-58 12-12 58 59 58-59 12 12-59 58 59 58z m86-38l160 0 0-16-160 0z m0-48l160 0 0-16-160 0z"/>
<glyph unicode="&#57716;" d="M512 376l-177 0c-3 19-16 64-79 64-63 0-76-45-79-64l-177 0 0-304 512 0z m-256 48c49 0 60-33 63-48l-126 0c2 15 14 48 63 48z m240-64l0-80-480 0 0 80z m-272-96l64 0 0-32-64 0z m-208-176l0 176 192 0 0-48 96 0 0 48 192 0 0-176z"/>
<glyph unicode="&#57717;" d="M256 0c62 0 120 24 164 68 44 44 68 102 68 164 0 62-24 120-68 164-42 42-97 66-156 68l0 32 40 0 0 16-96 0 0-16 40 0 0-32c-59-2-114-26-156-68-44-44-68-102-68-164 0-62 24-120 68-164 44-44 102-68 164-68z m-153 385c39 39 90 61 145 63l0-24 16 0 0 24c55-2 106-24 145-63 39-39 61-90 63-145l-24 0 0-16 24 0c-2-55-24-106-63-145-39-39-90-61-145-63l0 24-16 0 0-24c-55 2-106 24-145 63-39 39-61 90-63 145l24 0 0 16-24 0c2 55 24 106 63 145z m19-8l23-22-12-12-22 23z m257-256l22-23-11-11-23 22z m11 256l11-11-22-23-12 12z m-256-256l11-12-23-22-11 11z m122 79c18 0 32 14 32 32 0 15-10 27-24 31l0 81-16 0 0-81c-14-4-24-16-24-31 0-18 14-32 32-32z m0 48c9 0 16-7 16-16 0-9-7-16-16-16-9 0-16 7-16 16 0 9 7 16 16 16z"/>
<glyph unicode="&#57718;" d="M136 152l0-104-32 0 0-48 304 0 0 48-24 0 0 104c0 25-41 55-109 100 68 45 109 75 109 100l0 112 24 0 0 48-304 0 0-48 32 0 0-112c0-25 41-55 109-100-68-45-109-75-109-100z m256-136l-272 0 0 16 272 0z m-272 480l272 0 0-16-272 0z m32-144l0 112 216 0 0-112c0-19-59-58-108-90-49 32-108 71-108 90z m108-110c49-32 108-71 108-90l0-104-216 0 0 104c0 19 59 58 108 90z"/>
<glyph unicode="&#57719;" d="M256 512c-68 0-133-27-181-75-48-48-75-113-75-181 0-68 27-133 75-181 48-48 113-75 181-75 68 0 133 27 181 75 48 48 75 113 75 181 0 68-27 133-75 181-48 48-113 75-181 75z m170-426c-46-45-106-70-170-70-64 0-124 25-170 70-45 46-70 106-70 170 0 64 25 124 70 170 46 45 106 70 170 70 64 0 124-25 170-70 45-46 70-106 70-170 0-64-25-124-70-170z m-162 330l-16 0 0-163 74-75 12 12-70 69z m-232-152l32 0 0-16-32 0z m416 0l32 0 0-16-32 0z m-200-200l16 0 0-32-16 0z m0 416l16 0 0-32-16 0z"/>
<glyph unicode="&#57720;" d="M334 190l-70 69 0 157-16 0 0-163 74-75z m-302 74l32 0 0-16-32 0z m416 0l32 0 0-16-32 0z m-200-200l16 0 0-32-16 0z m0 416l16 0 0-32-16 0z m8 32l0-16c132 0 240-108 240-240 0-132-108-240-240-240-132 0-240 108-240 240 0 50 15 98 44 139l36 36 0-71 16 0 0 88-8 8-88 0 0-16 67 0-35-34 0-1c-32-44-48-95-48-149 0-141 115-256 256-256 141 0 256 115 256 256 0 141-115 256-256 256z"/>
<glyph unicode="&#57721;" d="M448 248c-4 89-81 160-175 160-84 0-158-55-175-128l-7 0c-50 0-91-39-91-88 0-49 39-88 88-88l352 0c40 0 72 32 72 72 0 38-28 68-64 72z m-8-128l-352 0c-40 0-72 32-72 72 0 40 33 72 75 72l20 0 1 6c13 70 82 122 161 122 87 0 159-68 159-152l0-8 8 0c31 0 56-25 56-56 0-31-25-56-56-56z"/>
<glyph unicode="&#57723;" d="M256-2c63 0 121 24 166 68 44 45 68 103 68 166 0 63-24 121-68 166-33 32-74 54-118 63 0 1 0 2 0 3 0 26-22 48-48 48-26 0-48-22-48-48 0-1 0-2 0-3-44-9-85-31-118-63-44-45-68-103-68-166 0-63 24-121 68-166 45-44 103-68 166-68z m0 498c18 0 32-14 32-32-11 2-21 2-32 2-11 0-21 0-32-2 0 18 14 32 32 32z m-154-110c39 40 91 62 146 64l0-34 16 0 0 34c55-2 107-24 146-64 40-39 62-91 64-146l-34 0 0-16 34 0c-2-55-24-107-64-146-39-40-91-62-146-64l0 34-16 0 0-34c-55 2-107 24-146 64-40 39-62 91-64 146l34 0 0 16-34 0c2 55 24 107 64 146z m197-201l4 4 64 152-10 10-152-64-4-4-56-144 10-10z m-6 21l-71 71 123 52z m-82 60l71-71-116-45z"/>
<glyph unicode="&#57724;" d="M392 296l0 80c71 5 72 79 72 80l0 8-72 0 0 48-272 0 0-48-72 0 0-8c0-1 1-75 72-80l0-80c0-41 52-70 128-72l0-208-88 0 0-16 192 0 0 16-88 0 0 208c76 2 128 31 128 72z m55 152c-2-16-12-52-55-56l0 56z m-382 0l55 0 0-56c-43 4-53 40-55 56z m71-152l0 200 240 0 0-200c0-28-41-56-120-56-79 0-120 28-120 56z"/>
<glyph unicode="&#57726;" d="M0 96l248 0 0-80-72 0 0-16 160 0 0 16-72 0 0 80 248 0 0 344-512 0z m496 16l-480 0 0 48 480 0z m0 312l0-248-480 0 0 248z"/>
<glyph unicode="&#57727;" d="M248 304l0-237-50 51-12-13 64-65 12 0 64 65-12 12-50-50 0 237z m-56-120l-176 0 0 272 480 0 0-272-176 0 0-16 192 0 0 304-512 0 0-304 192 0z"/>
<glyph unicode="&#57728;" d="M256 0c68 0 133 27 181 75 48 48 75 113 75 181 0 68-27 133-75 181-48 48-113 75-181 75-68 0-133-27-181-75-48-48-75-113-75-181 0-68 27-133 75-181 48-48 113-75 181-75z m-170 426c46 45 106 70 170 70 64 0 124-25 170-70 45-46 70-106 70-170 0-64-25-124-70-170-46-45-106-70-170-70-64 0-124 25-170 70-45 46-70 106-70 170 0 64 25 124 70 170z m162-50l16 0 0-176-16 0z m0-208l16 0 0-32-16 0z"/>
<glyph unicode="&#57729;" d="M256 128c162 0 251 118 254 123l4 5-4 5c-3 5-92 123-254 123-162 0-251-118-254-123l-4-5 4-5c3-5 92-123 254-123z m0 240c136 0 219-90 238-112-19-22-102-112-238-112-136 0-219 90-238 112 19 22 102 112 238 112z m0-176c35 0 64 29 64 64 0 35-29 64-64 64-35 0-64-29-64-64 0-35 29-64 64-64z m0 112c26 0 48-22 48-48 0-26-22-48-48-48-26 0-48 22-48 48 0 26 22 48 48 48z"/>
<glyph unicode="&#57730;" d="M139 150l-73-72 12-12 77 78c30-10 63-16 101-16 162 0 251 118 254 123l4 5-4 5c-2 3-49 66-137 101l73 72-12 12-77-78c-30 10-63 16-101 16-162 0-251-118-254-123l-4-5 4-5c2-3 49-66 137-101z m355 106c-19-22-102-112-238-112-32 0-61 5-88 13l49 49c11-9 24-14 39-14 35 0 64 29 64 64 0 15-5 28-14 39l54 54c75-27 121-77 134-93z m-286 0c0 26 22 48 48 48 10 0 20-3 28-9l-67-67c-6 8-9 18-9 28z m96 0c0-26-22-48-48-48-10 0-20 3-28 9l67 67c6-8 9-18 9-28z m-48 112c32 0 61-5 88-13l-49-49c-11 9-24 14-39 14-35 0-64-29-64-64 0-15 5-28 14-39l-54-54c-75 27-121 77-134 93 19 22 102 112 238 112z"/>
<glyph unicode="&#57732;" d="M104 472l0 40-16 0 0-512 16 0 0 264 333 0-52 104 52 104z m307-192l-307 0 0 176 307 0-44-88z"/>
<glyph unicode="&#57733;" d="M264 432l0 40-200 0 0 40-16 0 0-512 16 0 0 264 136 0 0-40 269 0-52 104 52 104z m-34 0l18 15 0-15z m-166-152l0 176 170 0-34-28 0-148z m379-40l-227 0 0 176 227 0-44-88z"/>
<glyph unicode="&#57734;" d="M400 512l-400 0 0-512 512 0 0 411-101 101z m-16-16l0-136-256 0 0 136z m-320-480l0 240 384 0 0-240z m432 0l-32 0 0 256-416 0 0-256-32 0 0 480 96 0 0-152 288 0 0 152 5 0 91-91z m-384 192l288 0 0-16-288 0z m0-64l288 0 0-16-288 0z m0-64l288 0 0-16-288 0z m240 400l-56 0 0-104 56 0z m-16-88l-24 0 0 72 24 0z"/>
<glyph unicode="&#57735;" d="M179 440l-179 0 0-368 512 0 0 304-269 0z m317-352l-480 0 0 336 157 0 64-64 259 0z"/>
<glyph unicode="&#57736;" d="M456 344l-239 0-57 56-160 0 0-328 456 0z m-16-256l-424 0 0 296 138 0 57-56 229 0z m-224 376l-160 0 0-56 16 0 0 40 138 0 57-56 229 0 0-240-32 0 0-16 48 0 0 272-239 0z"/>
<glyph unicode="&#57737;" d="M425 350l50 50-75 75-50-50-38 13 0 74-112 0 0-74-38-13-50 50-75-75 50-50-13-38-74 0 0-112 74 0 13-38-50-50 75-75 50 50 38-13 0-74 112 0 0 74 38 13 50-50 75 75-50 50 13 38 74 0 0 112-74 0z m71-134l-70 0-19-58 46-46-53-53-46 46-58-19 0-70-80 0 0 70-58 19-46-46-53 53 46 46-19 58-70 0 0 80 70 0 19 58-46 46 53 53 46-46 58 19 0 70 80 0 0-70 58-19 46 46 53-53-46-46 19-58 70 0z m-240 96c-31 0-56-25-56-56 0-31 25-56 56-56 31 0 56 25 56 56 0 31-25 56-56 56z m0-96c-22 0-40 18-40 40 0 22 18 40 40 40 22 0 40-18 40-40 0-22-18-40-40-40z"/>
<glyph unicode="&#57738;" d="M312 336c0 31-25 56-56 56-31 0-56-25-56-56 0-31 25-56 56-56 31 0 56 25 56 56z m-96 0c0 22 18 40 40 40 22 0 40-18 40-40 0-22-18-40-40-40-22 0-40 18-40 40z m40-340l6 7c7 8 171 201 170 327 0 100-79 182-176 182-97 0-176-82-176-182 0-126 163-319 170-327z m0 500c88 0 160-74 160-166 0-107-130-273-160-309-30 36-160 202-160 309 0 92 72 166 160 166z"/>
<glyph unicode="&#57739;" d="M296 360c0 22-18 40-40 40-22 0-40-18-40-40 0-22 18-40 40-40 22 0 40 18 40 40z m-64 0c0 13 11 24 24 24 13 0 24-11 24-24 0-13-11-24-24-24-13 0-24 11-24 24z m24-237l6 8c4 5 106 131 106 213 0 66-51 120-112 120-62 0-112-54-112-120 0-82 101-208 106-213z m0 325c53 0 96-47 96-104 0-65-74-166-96-195-22 29-96 130-96 195 0 57 43 104 96 104z m88-224l0-16 67 0 79-144-468 0 79 144 67 0 0 16-77 0-97-176 524 0-97 176z"/>
<glyph unicode="&#57740;" d="M464 288c0-111-97-208-208-208-74 0-97 29-98 29l-12-10c1-1 25-33 102-35l0-48-72 0 0-16 160 0 0 16-72 0 0 48c116 5 216 107 216 224 0 119-105 224-224 224l0-16c111 0 208-97 208-208z m-208-168c93 0 168 75 168 168 0 93-75 168-168 168-93 0-168-75-168-168 0-93 75-168 168-168z m0 320c84 0 152-68 152-152 0-84-68-152-152-152-84 0-152 68-152 152 0 84 68 152 152 152z"/>
<glyph unicode="&#57741;" d="M264 456l0 56-16 0 0-56c-104-4-188-88-192-192l-56 0 0-16 56 0c4-104 88-188 192-192l0-56 16 0 0 56c104 4 188 88 192 192l56 0 0 16-56 0c-4 104-88 188-192 192z m0-384l0 56-16 0 0-56c-95 4-172 81-176 176l56 0 0 16-56 0c4 95 81 172 176 176l0-56 16 0 0 56c95-4 172-81 176-176l-56 0 0-16 56 0c-4-95-81-172-176-176z"/>
<glyph unicode="&#57742;" d="M328 211l-141 141 96 96-42 42-6-3c0-1-20-15-45-15-18 0-34 8-48 22l-6 5-139-139 99-99 80 80 141-141-24-24 163-163 59 59-163 163z m-309 149l117 117c16-14 34-21 54-21 22 0 40 9 49 14l22-22-165-165z m437-325l-141 141 37 37 141-141z"/>
<glyph unicode="&#57743;" d="M424 296l-8 0 0 40c0 1-2 136-160 136-158 0-160-135-160-136l0-40-8 0c-49 0-88-39-88-88 0-49 39-88 88-88l24 0 0 216c0 5 2 120 144 120 142 0 144-115 144-120l0-243-104-41 0 28-80 0 0-48 74 0 126 51 0 37 8 0c49 0 88 39 88 88 0 49-39 88-88 88z m-328-160l-8 0c-40 0-72 32-72 72 0 40 32 72 72 72l8 0z m136-88l0 16 48 0 0-16z m192 88l-8 0 0 144 8 0c40 0 72-32 72-72 0-40-32-72-72-72z"/>
<glyph unicode="&#57744;" d="M384 480c-59 0-109-33-128-79-19 46-69 79-128 79-80 0-128-69-128-136 0-69 43-142 127-218 62-56 124-93 125-93l4-2 4 2c1 0 63 37 125 93 84 76 127 149 127 218 0 67-48 136-128 136z m-128-431c-32 20-240 152-240 295 0 59 42 120 112 120 58 0 120-40 120-104l16 0c0 64 62 104 120 104 70 0 112-61 112-120 0-143-208-275-240-295z"/>
<glyph unicode="&#57745;" d="M256 401c-19 46-69 79-128 79-80 0-128-69-128-136 0-69 43-142 127-218 62-56 124-93 125-93l4-2 4 2c1 0 63 37 125 93 84 76 127 149 127 218 0 67-48 136-128 136-59 0-109-33-128-79z m-240-57c0 59 42 120 112 120 58 0 120-40 120-104l0-4 44-37-63-63 48-48-48-48 48-48-47-46c-64 43-214 157-214 278z m480 0c0-143-208-275-240-295-3 2-7 5-12 8l55 55-48 48 48 48-48 48 65 65-52 43c3 62 63 100 120 100 70 0 112-61 112-120z"/>
<glyph unicode="&#57746;" d="M264 0l0 56c56 2 107 28 142 67l61-49 10 12-61 50c25 33 40 75 40 120 0 44-14 84-38 117l59 45-10 12-59-45c-35 42-86 69-144 71l0 56-16 0 0-56c-56-2-107-28-142-67l-61 49-10-12 61-50c-25-33-40-75-40-120 0-44 14-84 38-117l-59-45 10-12 59 45c35-42 86-69 144-71l0-56z m-64 256c0 31 25 56 56 56 31 0 56-25 56-56 0-31-25-56-56-56-31 0-56 25-56 56z m64-184l0 112c16 2 31 9 42 20l87-70c-32-36-78-60-129-62z m176 184c0-41-14-79-37-110l-87 70c8 12 12 25 12 40 0 14-4 28-12 39l89 68c22-30 35-67 35-107z m-44 120l-90-68c-11 10-26 18-42 20l0 112c53-2 99-27 132-64z m-148 64l0-112c-16-2-31-9-42-20l-87 70c32 36 78 60 129 62z m-176-184c0 41 14 79 37 110l87-70c-8-12-12-25-12-40 0-14 4-28 12-39l-89-68c-22 30-35 67-35 107z m44-120l90 68c11-10 26-18 42-20l0-112c-53 2-99 27-132 64z"/>
<glyph unicode="&#57747;" d="M-3 240l83 0 0-240 112 0 0 128 112 0 0-128 112 0 0 240 99 0-259 259z m403 16l0-240-80 0 0 128-144 0 0-128-80 0 0 240-61 0 221 221 221-221z"/>
<glyph unicode="&#57748;" d="M256 0c68 0 133 27 181 75 48 48 75 113 75 181 0 68-27 133-75 181-48 48-113 75-181 75-68 0-133-27-181-75-48-48-75-113-75-181 0-68 27-133 75-181 48-48 113-75 181-75z m-170 426c46 45 106 70 170 70 64 0 124-25 170-70 45-46 70-106 70-170 0-64-25-124-70-170-46-45-106-70-170-70-64 0-124 25-170 70-45 46-70 106-70 170 0 64 25 124 70 170z m162-114l16 0 0-176-16 0z m0 64l16 0 0-32-16 0z"/>
<glyph unicode="&#57749;" d="M120 0l272 0 0 512-272 0z m16 16l0 200 240 0 0-200z m0 216l0 232 240 0 0-232z m240 264l0-16-240 0 0 16z m-124-296c-46 0-84-38-84-84 0-46 38-84 84-84 46 0 84 38 84 84 0 46-38 84-84 84z m0-152c-37 0-68 31-68 68 0 37 31 68 68 68 37 0 68-31 68-68 0-37-31-68-68-68z m0 96c-15 0-28-13-28-28 0-15 13-28 28-28 15 0 28 13 28 28 0 15-13 28-28 28z m0-40c-7 0-12 5-12 12 0 7 5 12 12 12 7 0 12-5 12-12 0-7-5-12-12-12z"/>
<glyph unicode="&#57750;" d="M400 304l-136 0 0 32 112 0 0 72-80 0 0 16-16 0 0-32 80 0 0-40-112 0 0-48-136 0c-62 0-112-50-112-112 0-62 50-112 112-112 37 0 71 18 92 48l104 0c21-30 55-48 92-48 62 0 112 50 112 112 0 62-50 112-112 112z m0-208c-33 0-63 17-81 44l-2 4-122 0-2-4c-18-27-48-44-81-44-53 0-96 43-96 96 0 53 43 96 96 96l288 0c53 0 96-43 96-96 0-53-43-96-96-96z m-280 160l-16 0 0-56-56 0 0-16 56 0 0-56 16 0 0 56 56 0 0 16-56 0z m280 0c-35 0-64-29-64-64 0-35 29-64 64-64 35 0 64 29 64 64 0 35-29 64-64 64z m47-56l-39 0 0 39c20-3 36-19 39-39z m-55 39l0-39-39 0c3 20 19 36 39 39z m-39-55l39 0 0-39c-20 3-36 19-39 39z m55-39l0 39 39 0c-3-20-19-36-39-39z"/>
<glyph unicode="&#57751;" d="M408 360c-57 0-104-47-104-104 0-57 47-104 104-104 57 0 104 47 104 104 0 57-47 104-104 104z m0-192c-49 0-88 39-88 88 0 49 39 88 88 88 49 0 88-39 88-88 0-49-39-88-88-88z m-408 96l0-16 40 0 0-72 16 0 0 72 48 0 0-40 16 0 0 40 184 0 0 16z"/>
<glyph unicode="&#57752;" d="M64 392l112 0 0 72-80 0 0 16-16 0 0-32 80 0 0-40-112 0 0-64-48 0 0-256 512 0 0 256-448 0z m432-288l-480 0 0 224 480 0z m-464 184l32 0 0-16-32 0z m48 0l32 0 0-16-32 0z m48 0l32 0 0-16-32 0z m48 0l32 0 0-16-32 0z m48 0l32 0 0-16-32 0z m48 0l32 0 0-16-32 0z m48 0l32 0 0-16-32 0z m48 0l32 0 0-16-32 0z m48 0l32 0 0-16-32 0z m-384-128l32 0 0-16-32 0z m48 0l32 0 0-16-32 0z m48 0l208 0 0-16-208 0z m272 0l32 0 0-16-32 0z m48 0l32 0 0-16-32 0z m-96 0l32 0 0-16-32 0z m-288 64l32 0 0-16-32 0z m48 0l32 0 0-16-32 0z m48 0l32 0 0-16-32 0z m48 0l32 0 0-16-32 0z m48 0l32 0 0-16-32 0z m48 0l32 0 0-16-32 0z m48 0l32 0 0-16-32 0z m48 0l32 0 0-16-32 0z m48 0l32 0 0-16-32 0z"/>
<glyph unicode="&#57753;" d="M456 424l-400 0 0-272-56 0 0-64 512 0 0 64-56 0z m-384-16l368 0 0-256-368 0z m424-272l0-32-480 0 0 32z m-256 256l32 0 0-16-32 0z"/>
<glyph unicode="&#57754;" d="M256 512c-141 0-256-115-256-256 0-141 115-256 256-256 141 0 256 115 256 256 0 141-115 256-256 256z m233-200l-118 0c-13 26-33 46-59 59l0 118c87-21 156-90 177-177z m7-56c0-14-1-27-3-40l-115 0c4 13 6 26 6 40 0 14-2 27-6 40l115 0c2-13 3-26 3-40z m-240-112c-62 0-112 50-112 112 0 62 50 112 112 112 62 0 112-50 112-112 0-62-50-112-112-112z m-122 72l-115 0c-2 13-3 26-3 40 0 14 1 27 3 40l115 0c-4-13-6-26-6-40 0-14 2-27 6-40z m162 277l0-115c-13 4-26 6-40 6-14 0-27-2-40-6l0 115c13 2 26 3 40 3 14 0 27-1 40-3z m-96-4l0-118c-26-13-46-33-59-59l-118 0c21 87 90 156 177 177z m-177-289l118 0c13-26 33-46 59-59l0-118c-87 21-156 90-177 177z m193-181l0 115c13-4 26-6 40-6 14 0 27 2 40 6l0-115c-13-2-26-3-40-3-14 0-27 1-40 3z m96 4l0 118c26 13 46 33 59 59l118 0c-21-87-90-156-177-177z"/>
<glyph unicode="&#57755;" d="M320 0l0 48 16 0 0 48 16 0 0 48 0 44c50 33 80 88 80 148 0 97-79 176-176 176-97 0-176-79-176-176 0-60 31-116 80-148l0-92 16 0 0-48 16 0 0-48z m-16 16l-96 0 0 32 96 0z m-132 183c-47 29-76 81-76 137 0 88 72 160 160 160 88 0 160-72 160-160 0-56-28-107-76-136l-4-3 0-37-39 0 23 151-16 2-1-6-22-16-25 24-25-24-22 16-1 6-16-2 23-151-39 0 0 36z m59-39l-19 125 21-16 23 24 23-24 21 16-19-125z m-55-16l160 0 0-32-160 0z m16-48l128 0 0-32-128 0z"/>
<glyph unicode="&#57756;" d="M424 512c0 0 0 0 0 0-19 0-38-6-53-18l-105-104c-17-18-26-40-26-62 0-12 2-24 7-35 1-1 1-2 2-3l14 7c0 0-1 1-1 2l-7-3 7 3c-4 9-6 19-6 29 0 18 8 36 22 50l103 104c13 9 27 14 43 14 0 0 0 0 0 0 19 0 37-7 51-21 13-14 21-32 21-51 0-15-5-30-14-43l-96-95 0-1c-14-18-35-29-58-29 0 0 0 0 0 0-10 0-20 2-29 6l-6-15c11-5 23-7 35-7 0 0 0 0 0 0 28 0 53 13 70 35l96 95 0 1c12 16 18 34 18 53 0 24-9 46-26 62-17 17-39 26-62 26z m-174-299c4-9 6-19 6-29 0-16-5-30-14-43l-96-95 0-1c-14-19-35-29-58-29 0 0 0 0 0 0-19 0-37 7-51 21-13 14-21 32-21 51 0 18 8 36 22 50l103 104c13 9 27 14 43 14 0 0 0 0 0 0 10 0 20-2 29-6l6 15c-11 5-23 7-35 7 0 0 0 0 0 0-19 0-37-6-53-18l-105-105c-17-17-26-39-26-61 0-24 9-46 26-62 17-17 39-26 62-26 0 0 0 0 0 0 28 0 53 13 70 35l96 95 0 1c12 16 18 34 18 53 0 12-2 24-7 35z m84 109l-144-144-12 12 144 144z"/>
<glyph unicode="&#57757;" d="M392 376c0 75-61 136-136 136-75 0-136-61-136-136l0-120-64 0 0-256 400 0 0 256-64 0z m-256 0c0 66 54 120 120 120 66 0 120-54 120-120l0-120-240 0z m304-360l-368 0 0 224 368 0z m-192 81l0-25 16 0 0 25c18 4 32 20 32 39 0 22-18 40-40 40-22 0-40-18-40-40 0-19 14-35 32-39z m8 63c13 0 24-11 24-24 0-13-11-24-24-24-13 0-24 11-24 24 0 13 11 24 24 24z"/>
<glyph unicode="&#57758;" d="M136 376c0 66 54 120 120 120 66 0 120-54 120-120l0-24 16 0 0 24c0 75-61 136-136 136-75 0-136-61-136-136l0-120-64 0 0-256 400 0 0 256-320 0z m304-360l-368 0 0 224 368 0z m-192 81l0-25 16 0 0 25c18 4 32 20 32 39 0 22-18 40-40 40-22 0-40-18-40-40 0-19 14-35 32-39z m8 63c13 0 24-11 24-24 0-13-11-24-24-24-13 0-24 11-24 24 0 13 11 24 24 24z"/>
<glyph unicode="&#57759;" d="M256 512c-75 0-136-61-136-136l0-240c0-75 61-136 136-136 75 0 136 61 136 136l0 240c0 75-61 136-136 136z m120-376c0-66-54-120-120-120-66 0-120 54-120 120l0 240c0 66 54 120 120 120 66 0 120-54 120-120z m-128 296l16 0 0-64-16 0z"/>
<glyph unicode="&#57760;" d="M168 176c43 0 83 17 113 44l36-36-24-24 163-163 59 59-163 163-24-24-36 36c27 30 44 70 44 113 0 93-75 168-168 168-93 0-168-75-168-168 0-93 75-168 168-168z m325-120l-37-37-141 141 37 37z m-325 440c84 0 152-68 152-152 0-84-68-152-152-152-84 0-152 68-152 152 0 84 68 152 152 152z"/>
<glyph unicode="&#57761;" d="M96 352l144 0 0-16-144 0z m232-157l-36 36c27 30 44 70 44 113 0 93-75 168-168 168-93 0-168-75-168-168 0-93 75-168 168-168 43 0 83 17 113 44l36-36-24-24 163-163 59 59-163 163z m-312 149c0 84 68 152 152 152 84 0 152-68 152-152 0-84-68-152-152-152-84 0-152 68-152 152z m440-325l-141 141 37 37 141-141z"/>
<glyph unicode="&#57762;" d="M176 416l-16 0 0-64-64 0 0-16 64 0 0-64 16 0 0 64 64 0 0 16-64 0z m152-221l-36 36c27 30 44 70 44 113 0 93-75 168-168 168-93 0-168-75-168-168 0-93 75-168 168-168 43 0 83 17 113 44l36-36-24-24 163-163 59 59-163 163z m-312 149c0 84 68 152 152 152 84 0 152-68 152-152 0-84-68-152-152-152-84 0-152 68-152 152z m440-325l-141 141 37 37 141-141z"/>
<glyph unicode="&#57763;" d="M512 416l-512 0 0-312 512 0z m-35-16l-221-142-221 142z m-461-280l0 273 240-155 240 155 0-273z"/>
<glyph unicode="&#57764;" d="M432 376l-432 0 0-272 432 0z m-38-16l-178-103-179 103z m-378-240l0 234 200-116 200 116 0-234z m56 264l16 0 0 48 408 0 0-240-56 0 0-16 72 0 0 272-440 0z"/>
<glyph unicode="&#57765;" d="M432 512l-352 0 0-169-80-34 0-309 512 0 0 309-80 34z m-16-16l0-238-160-100-160 100 0 238z m-336-228l-55 35 55 23z m-64-252l0 274 240-151 240 151 0-274z m471 287l-55-35 0 58z"/>
<glyph unicode="&#57766;" d="M288 448l72 0 0-16-72 0z m-136-64l208 0 0-16-208 0z m0-64l208 0 0-16-208 0z m280 192l-352 0 0-169-80-34 0-309 512 0 0 309-80 34z m-16-16l0-238-160-100-160 100 0 238z m-336-228l-55 35 55 23z m-64-252l0 274 240-151 240 151 0-274z m471 287l-55-35 0 58z"/>
<glyph unicode="&#57767;" d="M360 512l0-16 125 0-149-149c-36 33-84 53-136 53-110 0-200-90-200-200 0-110 90-200 200-200 110 0 200 90 200 200 0 52-20 100-53 136l149 149 0-125 16 0 0 144-8 8z m-160-496c-101 0-184 83-184 184 0 101 83 184 184 184 101 0 184-83 184-184 0-101-83-184-184-184z"/>
<glyph unicode="&#57768;" d="M176 481l-176-67 0-386 176 67 160-64 176 67 0 386-176-67z m8-21l144-57 0-351-144 57z m-168-58l152 58 0-350-152-58z m480-292l-152-58 0 350 152 58z"/>
<glyph unicode="&#57769;" d="M0 128l136 0 0-105 123 105 253 0 0 352-512 0z m16 336l480 0 0-320-243 0-101-87 0 87-136 0z"/>
<glyph unicode="&#57770;" d="M104 19l107 93 237 0 0 320-448 0 0-320 104 0z m-88 109l0 288 416 0 0-288-227 0-85-74 0 74z m440 64l0-16 56 0 0 320-448 0 0-56 16 0 0 40 416 0 0-288z"/>
<glyph unicode="&#57771;" d="M80 392l352 0 0-16-352 0z m0-80l352 0 0-16-352 0z m0-80l352 0 0-16-352 0z m56-209l123 105 253 0 0 352-512 0 0-352 136 0z m-120 121l0 320 480 0 0-320-243 0-101-87 0 87z"/>
<glyph unicode="&#57772;" d="M104 463l0 49-16 0 0-49c-27-4-48-27-48-55 0-28 21-51 48-55l0-353 16 0 0 353c27 4 48 27 48 55 0 28-21 51-48 55z m-8-95c-22 0-40 18-40 40 0 22 18 40 40 40 22 0 40-18 40-40 0-22-18-40-40-40z m328-209l0 353-16 0 0-353c-27-4-48-27-48-55 0-28 21-51 48-55l0-49 16 0 0 49c27 4 48 27 48 55 0 28-21 51-48 55z m-8-95c-22 0-40 18-40 40 0 22 18 40 40 40 22 0 40-18 40-40 0-22-18-40-40-40z m-152 247l0 201-16 0 0-201c-27-4-48-27-48-55 0-28 21-51 48-55l0-201 16 0 0 201c27 4 48 27 48 55 0 28-21 51-48 55z m-8-95c-22 0-40 18-40 40 0 22 18 40 40 40 22 0 40-18 40-40 0-22-18-40-40-40z"/>
<glyph unicode="&#57773;" d="M256 512c-75 0-136-61-136-136l0-240c0-75 61-136 136-136 75 0 136 61 136 136l0 240c0 75-61 136-136 136z m-8-16l0-144-112 0 0 24c0 63 50 115 112 120z m8-480c-66 0-120 54-120 120l0 200 240 0 0-200c0-66-54-120-120-120z m120 336l-112 0 0 144c62-5 112-57 112-120z"/>
<glyph unicode="&#57774;" d="M432 0l0 512-352 0 0-56-24 0 0-16 24 0 0-48-24 0 0-16 24 0 0-48-24 0 0-16 24 0 0-48-24 0 0-16 24 0 0-48-24 0 0-16 24 0 0-48-24 0 0-16 24 0 0-48-24 0 0-16 24 0 0-56z m-16 16l-80 0 0 480 80 0z m-320 104l24 0 0 16-24 0 0 48 24 0 0 16-24 0 0 48 24 0 0 16-24 0 0 48 24 0 0 16-24 0 0 48 24 0 0 16-24 0 0 48 24 0 0 16-24 0 0 40 224 0 0-480-224 0 0 40 24 0 0 16-24 0z"/>
<glyph unicode="&#57775;" d="M432 464l-32 0 0-88 16 0 0 72 16 0 0-362 40-80 40 80 0 410-80 0z m16 16l48 0 0-390-24-48-24 48z m-424-464l336 0 0 480-336 0 0-40-24 0 0-16 24 0 0-48-24 0 0-16 24 0 0-48-24 0 0-16 24 0 0-48-24 0 0-16 24 0 0-48-24 0 0-16 24 0 0-48-24 0 0-16 24 0 0-48-24 0 0-16 24 0z m320 16l-64 0 0 448 64 0z m-304 88l24 0 0 16-24 0 0 48 24 0 0 16-24 0 0 48 24 0 0 16-24 0 0 48 24 0 0 16-24 0 0 48 24 0 0 16-24 0 0 48 24 0 0 16-24 0 0 24 224 0 0-448-224 0 0 24 24 0 0 16-24 0z"/>
<glyph unicode="&#57776;" d="M24 16l336 0 0 480-336 0 0-40-24 0 0-16 24 0 0-48-24 0 0-16 24 0 0-48-24 0 0-16 24 0 0-48-24 0 0-16 24 0 0-48-24 0 0-16 24 0 0-48-24 0 0-16 24 0 0-48-24 0 0-16 24 0z m320 16l-64 0 0 448 64 0z m-304 88l24 0 0 16-24 0 0 48 24 0 0 16-24 0 0 48 24 0 0 16-24 0 0 48 24 0 0 16-24 0 0 48 24 0 0 16-24 0 0 48 24 0 0 16-24 0 0 24 224 0 0-448-224 0 0 24 24 0 0 16-24 0z m392-42l40-80 40 80 0 434-80 0z m40-44l-24 48 0 334 48 0 0-334z m24 462l0-64-48 0 0 64z"/>
<glyph unicode="&#57777;" d="M5 279l-1-14 174-87 87-174 14 1 232 496-6 4-4 6z m461 198l-284-283-156 78z m-194-451l-78 156 283 284z"/>
<glyph unicode="&#57778;" d="M0 0l515 0-515 515z m16 72l48 0 0 16-48 0 0 48 32 0 0 16-32 0 0 48 48 0 0 16-48 0 0 48 32 0 0 16-32 0 0 48 48 0 0 16-48 0 0 133 461-461-461 0z m88 219l0-219 219 0z m16-38l165-165-165 0z m395-112l-20 79-295 295-59-59 295-295z m-22 22l-49 12-233 233 37 37 233-233z m-293 330l37-37-37-37-37 37z"/>
<glyph unicode="&#57779;" d="M312 0l0 512-144 0 0-512z m-128 496l112 0 0-72-48 0 0-16 48 0 0-64-16 0 0-16 16 0 0-64-48 0 0-16 48 0 0-64-16 0 0-16 16 0 0-64-48 0 0-16 48 0 0-72-112 0z m-48-62l-40 80-40-80 0-434 80 0z m-40 44l24-48 0-334-48 0 0 334z m-24-462l0 64 48 0 0-64z m344-10l40 80 0 410-80 0 0-32-32 0 0-88 16 0 0 72 16 0 0-362z m-24 474l48 0 0-390-24-48-24 48z"/>
<glyph unicode="&#57780;" d="M308 440l-104 0-64-80-140 0 0-272 512 0 0 272-140 0z m-292-96l48 0 0-240-48 0z m480-240l-416 0 0 240 68 0 64 80 88 0 64-80 132 0z m-240 192c-40 0-72-32-72-72 0-40 32-72 72-72 40 0 72 32 72 72 0 40-32 72-72 72z m0-128c-31 0-56 25-56 56 0 31 25 56 56 56 31 0 56-25 56-56 0-31-25-56-56-56z"/>
<glyph unicode="&#57781;" d="M0 80l512 0 0 352-512 0z m16 16l0 36 176 153 97-97 48 64 159-136 0-20z m480 320l0-279-161 139-48-64-95 95-176-153 0 262z m-88-128c26 0 48 22 48 48 0 26-22 48-48 48-26 0-48-22-48-48 0-26 22-48 48-48z m0 80c18 0 32-14 32-32 0-18-14-32-32-32-18 0-32 14-32 32 0 18 14 32 32 32z"/>
<glyph unicode="&#57782;" d="M432 392l-432 0 0-336 432 0z m-16-16l0-279-103 89-79-48-114 130-104-105 0 213z m-400-304l0 69 104 103 110-126 81 48 105-90 0-4z m56 328l16 0 0 40 408 0 0-304-56 0 0-16 72 0 0 336-440 0z m248-168c26 0 48 22 48 48 0 26-22 48-48 48-26 0-48-22-48-48 0-26 22-48 48-48z m0 80c18 0 32-14 32-32 0-18-14-32-32-32-18 0-32 14-32 32 0 18 14 32 32 32z"/>
<glyph unicode="&#57783;" d="M256 471c-48 0-87-39-87-87l16 0c0 39 32 71 71 71z m8-471l0 256c67 5 120 60 120 128 0 71-57 128-128 128-71 0-128-57-128-128 0-68 53-123 120-128l0-256z m-120 384c0 62 50 112 112 112 62 0 112-50 112-112 0-62-50-112-112-112-62 0-112 50-112 112z"/>
<glyph unicode="&#57784;" d="M121 278l-10-62 137 0 0-216 16 0 0 216 137 0-10 62-72 31-15 128 40 31 0 44-176 0 0-44 40-31-15-128z m103 165l-40 33 0 20 144 0 0-20-40-33 17-144 72-33 6-34-254 0 6 34 72 33z"/>
<glyph unicode="&#57785;" d="M512 416l-512 0 0-344 512 0z m-16-328l-480 0 0 312 480 0z m-32 280l-80 0 0-96 80 0z m-16-80l-48 0 0 64 48 0z m-144 80l16 0 0-248-16 0z m-256-16l224 0 0-16-224 0z m0-48l192 0 0-16-192 0z m0-48l208 0 0-16-208 0z"/>
<glyph unicode="&#57786;" d="M440 360l-440 0 0-288 440 0z m-16-272l-408 0 0 256 408 0z m-336 328l408 0 0-256-40 0 0-16 56 0 0 288-440 0 0-56 16 0z m312-96l-72 0 0-80 72 0z m-16-64l-40 0 0 48 40 0z m-128 64l16 0 0-208-16 0z m-216-16l192 0 0-16-192 0z m0-40l168 0 0-16-168 0z m0-40l176 0 0-16-176 0z"/>
<glyph unicode="&#57787;" d="M392 512l-272 0 0-152-120 0 0-272 120 0 0-88 272 0 0 88 120 0 0 272-120 0z m-256-16l240 0 0-136-240 0z m240-480l-240 0 0 176 240 0z m120 328l0-240-104 0 0 104-272 0 0-104-104 0 0 240z m-448-40l32 0 0-16-32 0z m48 0l32 0 0-16-32 0z m80-160l160 0 0-16-160 0z m0-64l160 0 0-16-160 0z"/>
<glyph unicode="&#57788;" d="M256 512c-68 0-133-27-181-75-48-48-75-113-75-181 0-68 27-133 75-181 48-48 113-75 181-75 68 0 133 27 181 75 48 48 75 113 75 181 0 68-27 133-75 181-48 48-113 75-181 75z m170-426c-46-45-106-70-170-70-64 0-124 25-170 70-45 46-70 106-70 170 0 64 25 124 70 170 46 45 106 70 170 70 64 0 124-25 170-70 45-46 70-106 70-170 0-64-25-124-70-170z m-194 82l16 0 0-32-16 0z m24 224c-48 0-72-16-72-48l16 0c0 15 6 32 56 32 34 0 56-19 56-48 0-22-31-43-44-49-1-1-36-19-36-71l0-8 16 0 0 8c0 42 26 56 28 57 2 1 52 26 52 63 0 38-30 64-72 64z"/>
<glyph unicode="&#57789;" d="M64 512l0-16c128 0 249-57 332-155 65-78 100-176 100-277l16 0c0 105-37 207-104 287-85 102-208 161-344 161z m342-448l16 0c0 197-158 358-358 358l0-16c192 0 342-154 342-342z m-342 267l0-16c136 0 252-112 252-251l16 0c0 147-124 267-268 267z m178-267c0 98-82 177-178 177l0-16c88 0 162-72 162-161z m-113 0c0 36-29 64-65 64-35 0-64-28-64-64 0-36 29-64 64-64 36 0 65 28 65 64z m-113 0c0 27 22 48 48 48 27 0 49-21 49-48 0-27-22-48-49-48-26 0-48 21-48 48z"/>
<glyph unicode="&#57790;" d="M431 512l-350 0-48-320-1 0 0-192 448 0 0 192-1 0z m-336-16l322 0 46-304-414 0z m369-480l-416 0 0 160 416 0z m-80 48c18 0 32 14 32 32 0 18-14 32-32 32-18 0-32-14-32-32 0-18 14-32 32-32z m0 48c9 0 16-7 16-16 0-9-7-16-16-16-9 0-16 7-16 16 0 9 7 16 16 16z"/>
<glyph unicode="&#57791;" d="M264 512c-107 0-216-22-216-64l0-384c0-42 109-64 216-64 107 0 216 22 216 64l0 384c0 42-109 64-216 64z m0-496c-124 0-200 28-200 48l0 102c34-25 117-38 200-38 83 0 166 13 200 38l0-102c0-20-76-48-200-48z m0 128c-124 0-200 28-200 48l0 102c34-25 117-38 200-38 83 0 166 13 200 38l0-102c0-20-76-48-200-48z m0 128c-124 0-200 28-200 48l0 102c34-25 117-38 200-38 83 0 166 13 200 38l0-102c0-20-76-48-200-48z m0 128c-124 0-200 28-200 48 0 20 76 48 200 48 124 0 200-28 200-48 0-20-76-48-200-48z"/>
<glyph unicode="&#57792;" d="M431 512l-350 0-48-320-1 0 0-192 448 0 0 192-1 0z m-336-16l322 0 46-304-414 0z m369-480l-416 0 0 160 416 0z m-80 48c18 0 32 14 32 32 0 18-14 32-32 32-18 0-32-14-32-32 0-18 14-32 32-32z m0 48c9 0 16-7 16-16 0-9-7-16-16-16-9 0-16 7-16 16 0 9 7 16 16 16z m-64 239c-4 28-30 49-64 49-30 0-55-24-62-49-17-3-26-21-26-31 0-20 12-32 32-32l112 0c20 0 32 12 32 32 0 10-8 27-24 31z m-8-47l-112 0c-12 0-16 4-16 16 0 4 5 16 16 16l7 0 1 6c4 20 25 42 48 42 23 0 48-14 48-40l0-8 8 0c11 0 16-12 16-16 0-11-5-16-16-16z"/>
<glyph unicode="&#57793;" d="M431 512l-350 0-48-320-1 0 0-192 448 0 0 192-1 0z m-336-16l322 0 46-304-414 0z m369-480l-416 0 0 160 416 0z m-80 48c18 0 32 14 32 32 0 18-14 32-32 32-18 0-32-14-32-32 0-18 14-32 32-32z m0 48c9 0 16-7 16-16 0-9-7-16-16-16-9 0-16 7-16 16 0 9 7 16 16 16z m-120 171l0 141-16 0 0-141-50 51-12-13 64-65 12 0 64 65-12 12z"/>
<glyph unicode="&#57794;" d="M431 512l-350 0-48-320-1 0 0-192 448 0 0 192-1 0z m-336-16l322 0 46-304-414 0z m369-480l-416 0 0 160 416 0z m-80 48c18 0 32 14 32 32 0 18-14 32-32 32-18 0-32-14-32-32 0-18 14-32 32-32z m0 48c9 0 16-7 16-16 0-9-7-16-16-16-9 0-16 7-16 16 0 9 7 16 16 16z m-134 312l-64-65 12-12 50 50 0-141 16 0 0 141 50-51 12 13-64 65z"/>
<glyph unicode="&#57795;" d="M328 211l-33 34 60 59 29 0c40 0 88 19 88 108l0 13-70-33-25 25 31 71-12 0c-89 0-108-48-108-88l0-29-60-60-97 97 26 26-94 56-25-25 56-94 26 26 97-98-195-197-1-2-16-54 24-23 55 14 199 196 34-33-24-24 163-163 59 59-163 163z m-270 252l7 7 66-40-33-33z m17-412l-42-10-10 9 12 42 269 273 0 35c0 45 26 68 80 71l-25-58 39-41 58 27c-4-52-28-79-72-79l-35 0z m381-16l-141 141 37 37 141-141z"/>
<glyph unicode="&#57796;" d="M408 512c-57 0-104-47-104-104 0-22 7-42 18-58l-173-111c-16 16-37 25-61 25-49 0-88-39-88-88 0-49 39-88 88-88 33 0 62 18 77 45l147-58c0-1 0-2 0-3 0-40 32-72 72-72 40 0 72 32 72 72 0 40-32 72-72 72-33 0-61-23-69-53l-144 57c3 9 5 18 5 28 0 19-6 37-17 51l173 110c19-20 46-33 76-33 57 0 104 47 104 104 0 57-47 104-104 104z m-24-384c31 0 56-25 56-56 0-31-25-56-56-56-31 0-56 25-56 56 0 31 25 56 56 56z m-296-24c-40 0-72 32-72 72 0 40 32 72 72 72 40 0 72-32 72-72 0-40-32-72-72-72z m320 216c-49 0-88 39-88 88 0 49 39 88 88 88 49 0 88-39 88-88 0-49-39-88-88-88z"/>
<glyph unicode="&#57797;" d="M64 395l0-395 384 0 0 512-267 0z m112 90l0-85-85 0z m256-469l-352 0 0 368 112 0 0 112 240 0z"/>
<glyph unicode="&#57798;" d="M56 347l0-347 328 0 0 448-227 0z m96 74l0-69-69 0z m216-405l-296 0 0 320 96 0 0 96 200 0z m24 64l0-16 64 0 0 448-227 0-43-42 12-12 37 38 205 0 0-416z"/>
<glyph unicode="&#57799;" d="M512 496l-80 0 0-32-32 0 0-88 16 0 0 72 16 0 0-362 40-80 40 80z m-16-406l-24-48-24 48 0 390 48 0z m-152 305l-101 101-243 0 0-480 344 0z m-96 74l69-69-69 0z m-232-437l0 448 216 0 0-96 96 0 0-352z m48 384l96 0 0-16-96 0z m0-80l216 0 0-16-216 0z m0-64l216 0 0-16-216 0z m0-64l216 0 0-16-216 0z m0-64l216 0 0-16-216 0z"/>
<glyph unicode="&#57800;" d="M344 395l-101 101-243 0 0-480 344 0z m-96 74l69-69-69 0z m-232-437l0 448 216 0 0-96 96 0 0-352z m496 480l-80 0 0-434 40-80 40 80z m-16-16l0-64-48 0 0 64z m-24-462l-24 48 0 334 48 0 0-334z m-408 382l96 0 0-16-96 0z m0-80l216 0 0-16-216 0z m0-64l216 0 0-16-216 0z m0-64l216 0 0-16-216 0z m0-64l216 0 0-16-216 0z"/>
<glyph unicode="&#57801;" d="M64 0l384 0 0 512-267 0-117-117z m368 16l-352 0 0 368 112 0 0 112 240 0z m-341 384l85 85 0-85z m165 8l112 0 0-16-112 0z m-112-80l224 0 0-16-224 0z m0-80l224 0 0-16-224 0z m0-80l224 0 0-16-224 0z m0-80l224 0 0-16-224 0z"/>
<glyph unicode="&#57802;" d="M248 184l0-168-56 0 0-16 128 0 0 16-56 0 0 168 80 0 0 112-80 0 0 16 179 0 65 56-65 56-179 0 0 32-16 0 0-32-80 0 0-112 80 0 0-16-179 0-65-56 65-56z m-64 224l253 0 47-40-47-40-253 0z m-109-128l253 0 0-80-253 0-47 40z"/>
<glyph unicode="&#57803;" d="M120 0l272 0 0 512-272 0z m16 16l0 80 240 0 0-80z m0 96l0 320 240 0 0-320z m240 384l0-48-240 0 0 48z m-152-16l64 0 0-16-64 0z m32-400c-13 0-24-11-24-24 0-13 11-24 24-24 13 0 24 11 24 24 0 13-11 24-24 24z m0-32c-4 0-8 4-8 8 0 4 4 8 8 8 4 0 8-4 8-8 0-4-4-8-8-8z"/>
<glyph unicode="&#57805;" d="M0 473l0-400 256-33 256 33 0 400-256-33z m16-18l232-30 0-368-232 30z m480-368l-232-30 0 368 232 30z"/>
<glyph unicode="&#57806;" d="M512 73l0 400-256-33-256 33 0-400 256-33z m-16 14l-232-30 0 368 72 9 0-151 40 20 40-20 0 162 80 10z m-144 349l48 7 0-134-24 12-24-12z m-336 19l232-30 0-368-232 30z"/>
<glyph unicode="&#57807;" d="M0 473l0-400 256-33 256 33 0 400-256-33z m16-18l232-30 0-368-232 30z m480-368l-232-30 0 368 232 30z m-439 305l152-16-2-16-152 16z m150-112l-152 16 2 16 152-16z m0-80l-152 16 2 16 152-16z m0-80l-152 16 2 16 152-16z m248 272l2-16-152-16-2 16z m0-80l2-16-152-16-2 16z m0-80l2-16-152-16-2 16z m-150-112l-2 16 152 16 2-16z"/>
<glyph unicode="&#57808;" d="M0 473l0-400 256-33 256 33 0 400-256-33z m16-18l232-30 0-368-232 30z m480-368l-232-30 0 368 72 9 0-151 40 20 40-20 0 162 80 10z m-144 349l48 7 0-134-24 12-24-12z m-295-44l152-16-2-16-152 16z m150-112l-152 16 2 16 152-16z m0-80l-152 16 2 16 152-16z m0-80l-152 16 2 16 152-16z m98 80l-2 16 152 16 2-16z m0-80l-2 16 152 16 2-16z"/>
<glyph unicode="&#57809;" d="M256 528l-70-200-193 0 158-123-71-211 176 132 176-132-71 211 158 123-193 0z m87-317l57-173-144 108-144-108 57 173-130 101 159 0 58 168 58-168 159 0z"/>
<glyph unicode="&#57810;" d="M432 512l-352 0 0-512 352 0z m-16-16l0-48-320 0 0 48z m0-64l0-320-320 0 0 320z m-320-416l0 80 320 0 0-80z m128 464l64 0 0-16-64 0z m32-400c-13 0-24-11-24-24 0-13 11-24 24-24 13 0 24 11 24 24 0 13-11 24-24 24z m0-32c-4 0-8 4-8 8 0 4 4 8 8 8 4 0 8-4 8-8 0-4-4-8-8-8z"/>
<glyph unicode="&#57811;" d="M256 512c-68 0-133-27-181-75-48-48-75-113-75-181 0-68 27-133 75-181 48-48 113-75 181-75 68 0 133 27 181 75 48 48 75 113 75 181 0 68-27 133-75 181-48 48-113 75-181 75z m170-426c-46-45-106-70-170-70-64 0-124 25-170 70-45 46-70 106-70 170 0 64 25 124 70 170 46 45 106 70 170 70 64 0 124-25 170-70 45-46 70-106 70-170 0-64-25-124-70-170z m-170 362c-51 0-100-20-136-56-36-36-56-85-56-136 0-51 20-100 56-136 36-36 85-56 136-56 51 0 100 20 136 56 36 36 56 85 56 136 0 51-20 100-56 136-36 36-85 56-136 56z m124-316c-33-34-77-52-124-52-47 0-91 18-124 52-34 33-52 77-52 124 0 47 18 91 52 124 33 34 77 52 124 52 47 0 91-18 124-52 34-33 52-77 52-124 0-47-18-91-52-124z m-124 252c-34 0-66-13-91-37-24-25-37-57-37-91 0-34 13-66 37-91 25-24 57-37 91-37 34 0 66 13 91 37 24 25 37 57 37 91 0 34-13 66-37 91-25 24-57 37-91 37z m79-207c-21-21-49-33-79-33-30 0-58 12-79 33-21 21-33 49-33 79 0 30 12 58 33 79 21 21 49 33 79 33 30 0 58-12 79-33 21-21 33-49 33-79 0-30-12-58-33-79z m-79 143c-17 0-33-7-45-19-12-12-19-28-19-45 0-17 7-33 19-45 12-12 28-19 45-19 17 0 33 7 45 19 12 12 19 28 19 45 0 17-7 33-19 45-12 12-28 19-45 19z m34-98c-9-9-21-14-34-14-13 0-25 5-34 14-9 9-14 21-14 34 0 13 5 25 14 34 9 9 21 14 34 14 13 0 25-5 34-14 9-9 14-21 14-34 0-13-5-25-14-34z"/>
<glyph unicode="&#57812;" d="M440 456l-108 0-6 24-30 0 0 32-80 0 0-32-30 0-6-24-108 0 0-456 368 0z m-242 8l34 0 0 32 48 0 0-32 34 0 12-48-140 0z m226-448l-336 0 0 424 88 0-10-40 180 0-10 40 88 0z"/>
<glyph unicode="&#57813;" d="M472 6l40 80 0 410-80 0 0-32-32 0 0-88 16 0 0 72 16 0 0-362z m-24 474l48 0 0-390-24-48-24 48z m-80-24l-108 0-6 24-30 0 0 32-80 0 0-32-30 0-6-24-108 0 0-456 368 0z m-242 8l34 0 0 32 48 0 0-32 34 0 12-48-140 0z m226-448l-336 0 0 424 88 0-10-40 180 0-10 40 88 0z"/>
<glyph unicode="&#57814;" d="M432 78l40-80 40 80 0 434-80 0z m40-44l-24 48 0 334 48 0 0-334z m24 462l0-64-48 0 0 64z m-128-40l-108 0-6 24-30 0 0 32-80 0 0-32-30 0-6-24-108 0 0-456 368 0z m-242 8l34 0 0 32 48 0 0-32 34 0 12-48-140 0z m226-448l-336 0 0 424 88 0-10-40 180 0-10 40 88 0z"/>
<glyph unicode="&#57815;" d="M200 328l176 0 0-16-176 0z m0-80l176 0 0-16-176 0z m0-80l176 0 0-16-176 0z m0-80l176 0 0-16-176 0z m-64 240l32 0 0-16-32 0z m0-80l32 0 0-16-32 0z m0-80l32 0 0-16-32 0z m0-80l32 0 0-16-32 0z m80 424l0-32-30 0-6-24-108 0 0-456 368 0 0 456-108 0-6 24-30 0 0 32z m130-112l-10 40 88 0 0-424-336 0 0 424 88 0-10-40z m-32 64l12-48-140 0 12 48 34 0 0 32 48 0 0-32z"/>
<glyph unicode="&#57816;" d="M128 328l176 0 0-16-176 0z m0-80l176 0 0-16-176 0z m0-80l176 0 0-16-176 0z m0-80l176 0 0-16-176 0z m-64 240l32 0 0-16-32 0z m0-80l32 0 0-16-32 0z m0-80l32 0 0-16-32 0z m0-80l32 0 0-16-32 0z m304 368l-108 0-6 24-30 0 0 32-80 0 0-32-30 0-6-24-108 0 0-456 368 0z m-242 8l34 0 0 32 48 0 0-32 34 0 12-48-140 0z m226-448l-336 0 0 424 88 0-10-40 180 0-10 40 88 0z m160 480l-80 0 0-32-32 0 0-88 16 0 0 72 16 0 0-362 40-80 40 80z m-16-406l-24-48-24 48 0 390 48 0z"/>
<glyph unicode="&#57817;" d="M128 328l176 0 0-16-176 0z m0-80l176 0 0-16-176 0z m0-80l176 0 0-16-176 0z m0-80l176 0 0-16-176 0z m-64 240l32 0 0-16-32 0z m0-80l32 0 0-16-32 0z m0-80l32 0 0-16-32 0z m0-80l32 0 0-16-32 0z m304 368l-108 0-6 24-30 0 0 32-80 0 0-32-30 0-6-24-108 0 0-456 368 0z m-242 8l34 0 0 32 48 0 0-32 34 0 12-48-140 0z m226-448l-336 0 0 424 88 0-10-40 180 0-10 40 88 0z m160 62l0 434-80 0 0-434 40-80z m-16 418l0-64-48 0 0 64z m-48-80l48 0 0-334-24-48-24 48z"/>
<glyph unicode="&#57818;" d="M104 0l304 0 0 432 24 0 0 16-112 0 0 64-128 0 0-64-112 0 0-16 24 0z m104 496l96 0 0-48-96 0z m184-64l0-416-272 0 0 416z m-192-80l16 0 0-272-16 0z m96 0l16 0 0-272-16 0z"/>
<glyph unicode="&#57819;" d="M376 334l96-328 16 4-29 97 47 16-37 127-47-16-31 105-15-4 0 81-19 0-40 96-105 0-33-41-73 1-16-56-18 0 0-416 304 0z m83-104l27-97-31-10-29 96z m-239 266l87 0 33-80-134 0-14 45z m-102-40l59-1 12-39-82 0z m242-440l-272 0 0 384 272 0z m-192 320l16 0 0-272-16 0z m96 0l16 0 0-272-16 0z"/>
<glyph unicode="&#57820;" d="M104 0l304 0 0 432 24 0 0 16-112 0 0 64-128 0 0-64-112 0 0-16 24 0z m104 496l96 0 0-48-96 0z m184-64l0-416-272 0 0 416z m-144-288l16 0-14-19 13-10 25 32 0 10-25 32-13-10 14-19-16 0c-32 0-56 34-56 64l-16 0c0-38 31-80 72-80z m14 125l-14 19 16 0c32 0 56-34 56-64l16 0c0 38-31 80-72 80l-16 0 14 19-13 10-25-32 0-10 25-32z"/>
<glyph unicode="&#57821;" d="M104 0l304 0 0 432 24 0 0 16-112 0 0 64-128 0 0-64-112 0 0-16 24 0z m104 496l96 0 0-48-96 0z m184-64l0-416-272 0 0 416z m-186-270l50 51 50-51 12 12-51 50 51 50-12 12-50-51-50 51-12-12 51-50-51-50z"/>
<glyph unicode="&#57822;" d="M264 48l0 237 50-51 12 13-64 65-12 0-64-65 12-12 50 50 0-237z m-72 136l-176 0 0 272 480 0 0-272-176 0 0-16 192 0 0 304-512 0 0-304 192 0z"/>
<glyph unicode="&#57823;" d="M224 403l-112 112-115-115 112-112-32-32 259-259 179 179-259 259z m-205-3l93 93 101-101-93-93z m317-381l-237 237 157 157 237-237z m-214 311l-72 72 12 12 72-72z m-24 120l12 12 72-72-12-12z"/>
<glyph unicode="&#57824;" d="M376 360l-53 0-64 64-211 0 0-16 205 0 48-48-301 0 0-272 376 0 0 74 136-80 0 284-136-80z m120-22l0-228-136 80 0-86-344 0 0 240 344 0 0-86z m-448-42l32 0 0-16-32 0z m64 0l32 0 0-16-32 0z m-64-160l160 0 0 96-160 0z m16 80l128 0 0-64-128 0z"/>
<glyph unicode="&#57825;" d="M424 256c0 56-28 105-70 136l6 0 0 120-208 0 0-120 6 0c-42-31-70-80-70-136 0-56 28-105 70-136l-6 0 0-120 208 0 0 120-6 0c42 31 70 80 70 136z m-256 240l176 0 0-97c-26 16-56 25-88 25-32 0-62-9-88-25z m176-480l-176 0 0 97c26-16 56-25 88-25 32 0 62 9 88 25z m-88 88c-84 0-152 68-152 152 0 84 68 152 152 152 84 0 152-68 152-152 0-84-68-152-152-152z m8 248l-16 0 0-101 68-34 8 14-60 30z"/>
<glyph unicode="&#57826;" d="M0 48l512 0 0 416-512 0z m16 16l0 320 480 0 0-320z m480 384l0-48-480 0 0 48z m-448-16l32 0 0-16-32 0z m64 0l32 0 0-16-32 0z m64 0l32 0 0-16-32 0z"/>
<glyph unicode="&#57827;" d="M0 48l512 0 0 416-512 0z m16 16l0 320 480 0 0-320z m480 384l0-48-480 0 0 48z m-448-16l32 0 0-16-32 0z m64 0l32 0 0-16-32 0z m64 0l32 0 0-16-32 0z m-128-112l216 0 0-16-216 0z m0-64l216 0 0-16-216 0z m0-64l216 0 0-16-216 0z m248-16l168 0 0 144-168 0z m16 128l136 0 0-112-136 0z"/>
<glyph unicode="&#57828;" d="M448 400l-448 0 0-352 448 0z m-16-16l0-48-416 0 0 48z m-416-320l0 256 416 0 0-256z m64 352l16 0 0 32 400 0 0-328-32 0 0-16 48 0 0 360-432 0z m-32-48l32 0 0-16-32 0z m64 0l32 0 0-16-32 0z m64 0l32 0 0-16-32 0z"/>
<glyph unicode="&#57829;" d="M48 320l416 0 0-16-416 0z m0-64l416 0 0-16-416 0z m0-64l416 0 0-16-416 0z m464 272l-512 0 0-416 512 0z m-16-16l0-48-480 0 0 48z m-480-384l0 320 480 0 0-320z m32 368l32 0 0-16-32 0z m64 0l32 0 0-16-32 0z m64 0l32 0 0-16-32 0z"/>
<glyph unicode="&#57830;" d="M256 513c-69 0-133-27-182-75-48-49-75-113-75-182 0-69 27-133 75-181 49-49 113-75 182-75 0 0 0 0 0 0l0 0c142 0 257 115 257 256 0 69-27 133-75 182-49 48-113 75-182 75z m182-99c-7-10-26-31-64-48-22 63-57 106-79 128 50-8 95-31 131-68 4-4 8-8 12-12z m-170-399c-1 0-3 0-4 0l0 153c40-1 71-7 95-16-28-81-81-129-91-137z m-115 137c25 9 56 15 95 16l0-153c-1 0-3 0-4 0-10 8-63 56-91 137z m91 345c1 0 3 0 4 0l0-153c-40 1-71 7-95 16 28 81 81 129 91 137z m115-137c-25-9-56-15-95-16l0 153c1 0 3 0 4 0 10-8 63-56 91-137z m-95-32c41 1 74 7 100 16 7-24 11-51 12-80l-112 0z m-16 0l0-64-112 0c1 29 5 56 12 80 26-9 59-15 100-16z m-128-64l-105 0c2 50 19 98 49 137 10-12 31-34 69-51-7-26-12-54-13-86z m0-16c1-32 6-60 13-86-38-17-59-39-69-51-30 39-47 87-49 137z m16 0l112 0 0-64c-41-1-74-7-100-16-7 24-11 51-12 80z m128-64l0 64 112 0c-1-29-5-56-12-80-26 9-59 15-100 16z m128 64l105 0c-2-51-20-99-49-137-10 13-31 34-69 51 7 26 12 54 13 86z m0 16c-1 32-6 60-13 86 38 17 59 39 69 51 30-39 47-87 49-137l-105 0z m-175 230c-22-22-57-65-79-128-12 5-22 11-29 16-19 13-30 25-34 32 3 4 7 8 11 12 36 37 81 60 131 68z m-143-396c7 10 26 31 64 48 22-63 57-106 79-128-50 8-95 31-131 68-4 4-8 8-12 12z m182-90l0-1z m39 10c22 22 57 65 79 128 12-5 22-11 29-16 19-13 30-25 34-32-36-42-86-70-142-80z"/>
<glyph unicode="&#57831;" d="M256 512c-141 0-256-115-256-256 0-54 16-105 48-149l35-35-67 0 0-16 88 0 8 8 0 88-16 0 0-71-36 36c-29 41-44 89-44 139 0 132 108 240 240 240 132 0 240-108 240-240 0-132-108-240-240-240l0-16c141 0 256 115 256 256 0 141-115 256-256 256z"/>
<glyph unicode="&#57832;" d="M256 512c-141 0-256-115-256-256 0-54 16-105 48-149l35-35-67 0 0-16 88 0 8 8 0 88-16 0 0-71-36 36c-29 41-44 89-44 139 0 132 108 240 240 240 5 0 10 0 15 0l2 15c-6 1-11 1-17 1z m169-63l-11-12c8-7 15-15 22-23l12 11c-7 8-15 16-23 24z m74-275l-16 5c-3-10-7-20-12-29l15-7c5 10 9 20 13 31z m-115-140c10 6 19 12 28 19l-10 13c-8-7-17-13-26-18z m-8 430c9-5 18-11 26-17l10 12c-9 7-19 13-28 19z m119-192c1-5 1-11 1-16 0-5 0-10 0-15l15-1c1 5 1 10 1 16 0 6 0 11-1 17z m-156-258c10 3 20 8 30 12l-7 15c-9-5-19-9-29-12z m-49-12c11 2 22 4 32 7l-4 15c-10-3-20-5-30-6z m-3 492c10-1 21-3 31-6l4 15c-11 3-22 5-33 7z m216-171l-15-5c3-10 5-20 6-30l16 2c-2 11-4 22-7 33z m-89-247l11-12c8 7 16 15 24 23l-12 11c-7-8-15-15-23-22z m96 147l-16 2c-1-10-3-21-6-31l15-4c3 11 5 22 7 33z m-64 179c7-8 13-17 18-26l14 8c-6 10-12 19-19 28z m25-40c5-9 9-19 12-29l15 6c-3 10-8 20-12 30z m-138 121c10-3 20-7 29-12l7 15c-10 5-20 9-31 13z m145-355l-14 8c-5-9-11-18-17-26l12-10c7 9 13 19 19 28z m-222-112l0-16c6 0 11 0 17 1l-2 15c-5 0-10 0-15 0z"/>
<glyph unicode="&#57833;" d="M256 512c-75 0-136-61-136-136l0-240c0-75 61-136 136-136 75 0 136 61 136 136l0 240c0 75-61 136-136 136z m120-376c0-66-54-120-120-120-66 0-120 54-120 120l0 240c0 66 54 120 120 120 66 0 120-54 120-120z m-120 104c-57 0-104-47-104-104 0-57 47-104 104-104 57 0 104 47 104 104 0 57-47 104-104 104z m0-192c-49 0-88 39-88 88 0 49 39 88 88 88 49 0 88-39 88-88 0-49-39-88-88-88z"/>
<glyph unicode="&#57834;" d="M376 392l-240 0c-75 0-136-61-136-136 0-75 61-136 136-136l240 0c75 0 136 61 136 136 0 75-61 136-136 136z m0-256l-240 0c-66 0-120 54-120 120 0 66 54 120 120 120l240 0c66 0 120-54 120-120 0-66-54-120-120-120z m-240 224c-57 0-104-47-104-104 0-57 47-104 104-104 57 0 104 47 104 104 0 57-47 104-104 104z m0-192c-49 0-88 39-88 88 0 49 39 88 88 88 49 0 88-39 88-88 0-49-39-88-88-88z"/>
<glyph unicode="&#57835;" d="M376 392l-240 0c-75 0-136-61-136-136 0-75 61-136 136-136l240 0c75 0 136 61 136 136 0 75-61 136-136 136z m0-256l-240 0c-66 0-120 54-120 120 0 66 54 120 120 120l240 0c66 0 120-54 120-120 0-66-54-120-120-120z m0 224c-57 0-104-47-104-104 0-57 47-104 104-104 57 0 104 47 104 104 0 57-47 104-104 104z m0-192c-49 0-88 39-88 88 0 49 39 88 88 88 49 0 88-39 88-88 0-49-39-88-88-88z"/>
<glyph unicode="&#57836;" d="M392 136l0 240c0 75-61 136-136 136-75 0-136-61-136-136l0-240c0-75 61-136 136-136 75 0 136 61 136 136z m-136-120c-66 0-120 54-120 120l0 240c0 66 54 120 120 120 66 0 120-54 120-120l0-240c0-66-54-120-120-120z m0 464c-57 0-104-47-104-104 0-57 47-104 104-104 57 0 104 47 104 104 0 57-47 104-104 104z m0-192c-49 0-88 39-88 88 0 49 39 88 88 88 49 0 88-39 88-88 0-49-39-88-88-88z"/>
<glyph unicode="&#57837;" d="M110 254l-12-13 96-97 12 0 192 193-12 12-186-186z"/>
<glyph unicode="&#57838;" d="M206 144l192 193-12 12-186-186-90 91-12-13 96-97z m50-144c0 0 0 0 0 0 68 0 133 27 181 75 48 48 75 113 75 181 0 68-27 133-75 181-48 48-113 75-181 75 0 0 0 0 0 0-68 0-133-27-181-75-48-48-75-113-75-181 0-68 27-133 75-181 48-48 113-75 181-75z m-170 426c46 45 106 70 170 70 0 0 0 0 0 0 64 0 124-25 170-70 45-46 70-106 70-170 0-64-25-124-70-170-46-45-106-70-170-70l0 0c0 0 0 0 0 0-64 0-124 25-170 70-45 46-70 106-70 170 0 64 25 124 70 170z"/>
<glyph unicode="&#57839;" d="M262 176l136 137-12 12-130-130-130 131-12-13 136-137z m-6-176c0 0 0 0 0 0 68 0 133 27 181 75 48 48 75 113 75 181 0 68-27 133-75 181-48 48-113 75-181 75 0 0 0 0 0 0-68 0-133-27-181-75-48-48-75-113-75-181 0-68 27-133 75-181 48-48 113-75 181-75z m-170 426c46 45 106 70 170 70 0 0 0 0 0 0 64 0 124-25 170-70 45-46 70-106 70-170 0-64-25-124-70-170-46-45-106-70-170-70l0 0c0 0 0 0 0 0-64 0-124 25-170 70-45 46-70 106-70 170 0 64 25 124 70 170z"/>
<glyph unicode="&#57840;" d="M256 0c0 0 0 0 0 0 68 0 133 27 181 75 48 48 75 113 75 181 0 68-27 133-75 181-48 48-113 75-181 75 0 0 0 0 0 0-68 0-133-27-181-75-48-48-75-113-75-181 0-68 27-133 75-181 48-48 113-75 181-75z m-170 426c46 45 106 70 170 70 0 0 0 0 0 0 64 0 124-25 170-70 45-46 70-106 70-170 0-64-25-124-70-170-46-45-106-70-170-70l0 0c0 0 0 0 0 0-64 0-124 25-170 70-45 46-70 106-70 170 0 64 25 124 70 170z m290-250l0 16-184 0 0 184-16 0 0-192 8-8z"/>
<glyph unicode="&#57841;" d="M256 0c0 0 0 0 0 0 68 0 133 27 181 75 48 48 75 113 75 181 0 68-27 133-75 181-48 48-113 75-181 75 0 0 0 0 0 0-68 0-133-27-181-75-48-48-75-113-75-181 0-68 27-133 75-181 48-48 113-75 181-75z m-170 426c46 45 106 70 170 70 0 0 0 0 0 0 64 0 124-25 170-70 45-46 70-106 70-170 0-64-25-124-70-170-46-45-106-70-170-70l0 0c0 0 0 0 0 0-64 0-124 25-170 70-45 46-70 106-70 170 0 64 25 124 70 170z m250-242l0 192-16 0 0-184-184 0 0-16 192 0z"/>
<glyph unicode="&#57842;" d="M223 114l137 136 0 12-137 136-12-12 130-130-130-130z m33-114c0 0 0 0 0 0 68 0 133 27 181 75 48 48 75 113 75 181 0 68-27 133-75 181-48 48-113 75-181 75 0 0 0 0 0 0-68 0-133-27-181-75-48-48-75-113-75-181 0-68 27-133 75-181 48-48 113-75 181-75z m-170 426c46 45 106 70 170 70 0 0 0 0 0 0 64 0 124-25 170-70 45-46 70-106 70-170 0-64-25-124-70-170-46-45-106-70-170-70l0 0c0 0 0 0 0 0-64 0-124 25-170 70-45 46-70 106-70 170 0 64 25 124 70 170z"/>
<glyph unicode="&#57843;" d="M112 272l288 0 0-16-288 0z m144-272c0 0 0 0 0 0 68 0 133 27 181 75 48 48 75 113 75 181 0 68-27 133-75 181-48 48-113 75-181 75 0 0 0 0 0 0-68 0-133-27-181-75-48-48-75-113-75-181 0-68 27-133 75-181 48-48 113-75 181-75z m-170 426c46 45 106 70 170 70 0 0 0 0 0 0 64 0 124-25 170-70 45-46 70-106 70-170 0-64-25-124-70-170-46-45-106-70-170-70l0 0c0 0 0 0 0 0-64 0-124 25-170 70-45 46-70 106-70 170 0 64 25 124 70 170z"/>
<glyph unicode="&#57844;" d="M248 112l16 0 0 136 136 0 0 16-136 0 0 136-16 0 0-136-136 0 0-16 136 0z m8-112c0 0 0 0 0 0 68 0 133 27 181 75 48 48 75 113 75 181 0 68-27 133-75 181-48 48-113 75-181 75 0 0 0 0 0 0-68 0-133-27-181-75-48-48-75-113-75-181 0-68 27-133 75-181 48-48 113-75 181-75z m-170 426c46 45 106 70 170 70 0 0 0 0 0 0 64 0 124-25 170-70 45-46 70-106 70-170 0-64-25-124-70-170-46-45-106-70-170-70l0 0c0 0 0 0 0 0-64 0-124 25-170 70-45 46-70 106-70 170 0 64 25 124 70 170z"/>
<glyph unicode="&#57845;" d="M147 172l11-11 98 99 99-98 11 11-99 98 98 99-11 11-98-99-99 98-11-11 99-98z m109-172c0 0 0 0 0 0 68 0 133 27 181 75 48 48 75 113 75 181 0 68-27 133-75 181-48 48-113 75-181 75 0 0 0 0 0 0-68 0-133-27-181-75-48-48-75-113-75-181 0-68 27-133 75-181 48-48 113-75 181-75z m-170 426c46 45 106 70 170 70 0 0 0 0 0 0 64 0 124-25 170-70 45-46 70-106 70-170 0-64-25-124-70-170-46-45-106-70-170-70l0 0c0 0 0 0 0 0-64 0-124 25-170 70-45 46-70 106-70 170 0 64 25 124 70 170z"/>
<glyph unicode="&#57846;" d="M302 126l-131 130 131 130-13 12-137-136 0-12 137-136z m-46-126c0 0 0 0 0 0 68 0 133 27 181 75 48 48 75 113 75 181 0 68-27 133-75 181-48 48-113 75-181 75 0 0 0 0 0 0-68 0-133-27-181-75-48-48-75-113-75-181 0-68 27-133 75-181 48-48 113-75 181-75z m-170 426c46 45 106 70 170 70 0 0 0 0 0 0 64 0 124-25 170-70 45-46 70-106 70-170 0-64-25-124-70-170-46-45-106-70-170-70l0 0c0 0 0 0 0 0-64 0-124 25-170 70-45 46-70 106-70 170 0 64 25 124 70 170z"/>
<glyph unicode="&#57847;" d="M256 317l130-131 12 13-136 137-12 0-136-137 12-12z m0-317c0 0 0 0 0 0 68 0 133 27 181 75 48 48 75 113 75 181 0 68-27 133-75 181-48 48-113 75-181 75 0 0 0 0 0 0-68 0-133-27-181-75-48-48-75-113-75-181 0-68 27-133 75-181 48-48 113-75 181-75z m-170 426c46 45 106 70 170 70 0 0 0 0 0 0 64 0 124-25 170-70 45-46 70-106 70-170 0-64-25-124-70-170-46-45-106-70-170-70l0 0c0 0 0 0 0 0-64 0-124 25-170 70-45 46-70 106-70 170 0 64 25 124 70 170z"/>
<glyph unicode="&#57848;" d="M256 0c0 0 0 0 0 0 68 0 133 27 181 75 48 48 75 113 75 181 0 68-27 133-75 181-48 48-113 75-181 75 0 0 0 0 0 0-68 0-133-27-181-75-48-48-75-113-75-181 0-68 27-133 75-181 48-48 113-75 181-75z m-170 426c46 45 106 70 170 70 0 0 0 0 0 0 64 0 124-25 170-70 45-46 70-106 70-170 0-64-25-124-70-170-46-45-106-70-170-70l0 0c0 0 0 0 0 0-64 0-124 25-170 70-45 46-70 106-70 170 0 64 25 124 70 170z m106-106l184 0 0 16-200 0 0-200 16 0z"/>
<glyph unicode="&#57849;" d="M256 0c0 0 0 0 0 0 68 0 133 27 181 75 48 48 75 113 75 181 0 68-27 133-75 181-48 48-113 75-181 75 0 0 0 0 0 0-68 0-133-27-181-75-48-48-75-113-75-181 0-68 27-133 75-181 48-48 113-75 181-75z m-170 426c46 45 106 70 170 70 0 0 0 0 0 0 64 0 124-25 170-70 45-46 70-106 70-170 0-64-25-124-70-170-46-45-106-70-170-70l0 0c0 0 0 0 0 0-64 0-124 25-170 70-45 46-70 106-70 170 0 64 25 124 70 170z m234-290l16 0 0 192-8 8-192 0 0-16 184 0z"/>
<glyph unicode="&#57850;" d="M256 512c-141 0-256-115-256-256 0-141 115-256 256-256l0 16c-132 0-240 108-240 240 0 132 108 240 240 240 132 0 240-108 240-240 0-50-15-98-44-139l-36-36 0 71-16 0 0-88 8-8 88 0 0 16-67 0 35 34 0 1c32 44 48 95 48 149 0 141-115 256-256 256z"/>
<glyph unicode="&#57851;" d="M65 110c-6 8-12 17-17 26l-14-8c6-9 12-19 19-28z m-31 274l14-8c5 9 11 18 18 26l-13 10c-7-9-13-18-19-28z m-34-128c0-6 0-11 1-16l15 1c0 5 0 10 0 15 0 5 0 11 1 16l-16 1c-1-6-1-11-1-17z m2-33c2-11 4-22 7-33l15 4c-3 10-5 21-6 31z m0 67l16-2c1 10 3 20 6 30l-15 5c-3-11-5-22-7-33z m12 49l15-6c3 10 7 20 12 29l-15 7c-4-10-9-20-12-30z m27-189c-5 9-9 19-12 29l-16-5c4-11 8-21 13-31z m138 333l-5 16c-11-4-21-8-31-13l7-15c9 5 19 9 29 12z m-51-449l8 14c-9 5-18 11-26 18l-10-13c9-7 18-13 28-19z m94-32l2 16c-10 1-20 3-30 6l-5-15c11-3 22-5 33-7z m-49 12l6 15c-10 3-20 7-29 12l-7-15c10-4 20-9 30-12z m-37 450l-8 14c-9-6-19-12-28-19l10-12c8 6 17 12 26 17z m89 30l-2 16c-11-2-22-4-33-7l4-15c10 3 21 5 31 6z m-138-45c-8-8-16-16-23-24l12-11c7 8 14 16 22 23z m0-385l11 12c-8 7-16 14-23 22l-12-11c8-8 16-16 24-23z m169-48c-5 0-10 0-15 0l-2-15c6-1 11-1 17-1z m0 496c-6 0-11 0-17-1l2-15c5 0 10 0 15 0 132 0 240-108 240-240 0-50-15-98-44-139l-36-36 0 71-16 0 0-88 8-8 88 0 0 16-67 0 35 34 0 1c32 44 48 95 48 149 0 141-115 256-256 256z"/>
<glyph unicode="&#57852;" d="M382 306l-13 12-57-56 0-12 57-56 12 12-42 42 173 0 0 16-173 0z m-252-100l13-12 57 56 0 12-57 56-12-12 42-42-173 0 0-16 173 0z m120-6l-56-57 12-12 42 42 0-173 16 0 0 173 42-43 12 13-56 57z m-2 312l0-173-42 43-12-13 56-57 12 0 56 57-12 12-42-42 0 173z"/>
<glyph unicode="&#57853;" d="M256 512c-68 0-133-27-181-75-48-48-75-113-75-181 0-68 27-133 75-181 48-48 113-75 181-75 68 0 133 27 181 75 48 48 75 113 75 181 0 68-27 133-75 181-48 48-113 75-181 75z m-170-426c-45 46-70 106-70 170 0 61 23 119 65 164l339-339c-45-42-103-65-164-65-64 0-124 25-170 70z m345 6l-339 339c45 42 103 65 164 65 64 0 124-25 170-70 45-46 70-106 70-170 0-61-23-119-65-164z"/>
<glyph unicode="&#57854;" d="M416 512l0-16 69 0-469-469 0 69-16 0 0-88 8-8 88 0 0 16-69 0 469 469 0-69 16 0 0 88-8 8z"/>
<glyph unicode="&#57855;" d="M496 27l-469 469 69 0 0 16-88 0-8-8 0-88 16 0 0 69 469-469-69 0 0-16 88 0 8 8 0 88-16 0z"/>
<glyph unicode="&#57856;" d="M386 326l-130-131-130 131-12-13 136-137 12 0 136 137z"/>
<glyph unicode="&#57857;" d="M255 139l-130 131-11-13 136-137 11 0 136 137-11 12z m0 120l-130 131-11-13 136-137 11 0 136 137-11 12z"/>
<glyph unicode="&#57858;" d="M176 376l0-192 8-8 192 0 0 16-184 0 0 184z"/>
<glyph unicode="&#57859;" d="M136 192l0-16 192 0 8 8 0 192-16 0 0-184z"/>
<glyph unicode="&#57862;" d="M184 512l16 0 0-512-16 0z m64 0l16 0 0-512-16 0z m64 0l16 0 0-512-16 0z"/>
<glyph unicode="&#57863;" d="M384 384c-68 0-123-53-128-120l-229 0 59 58-13 12-73-72 0-12 73-72 12 12-58 58 229 0c5-67 60-120 128-120 71 0 128 57 128 128 0 71-57 128-128 128z m0-240c-62 0-112 50-112 112 0 62 50 112 112 112 62 0 112-50 112-112 0-62-50-112-112-112z"/>
<glyph unicode="&#57864;" d="M40 264l32 0 0-16-32 0z m144 0l32 0 0-16-32 0z m-48 0l32 0 0-16-32 0z m-48 0l32 0 0-16-32 0z m296 120c-68 0-123-53-128-120l-24 0 0-16 24 0c5-67 60-120 128-120 71 0 128 57 128 128 0 71-57 128-128 128z m0-240c-62 0-112 50-112 112 0 62 50 112 112 112 62 0 112-50 112-112 0-62-50-112-112-112z m-311 190l-73-72 0-12 73-72 12 12-61 61 0 10 61 61z"/>
<glyph unicode="&#57865;" d="M426 322l59-58-229 0c-5 67-60 120-128 120-71 0-128-57-128-128 0-71 57-128 128-128 68 0 123 53 128 120l229 0-59-58 13-12 73 72 0 12-73 72z m-298-178c-62 0-112 50-112 112 0 62 50 112 112 112 62 0 112-50 112-112 0-62-50-112-112-112z"/>
<glyph unicode="&#57866;" d="M296 264l32 0 0-16-32 0z m48 0l32 0 0-16-32 0z m96 0l32 0 0-16-32 0z m-48 0l32 0 0-16-32 0z m-136-16l24 0 0 16-24 0c-5 67-60 120-128 120-71 0-128-57-128-128 0-71 57-128 128-128 68 0 123 53 128 120z m-128-104c-62 0-112 50-112 112 0 62 50 112 112 112 62 0 112-50 112-112 0-62-50-112-112-112z m298 178l62-61 0-10-62-61 13-12 73 72 0 12-73 72z"/>
<glyph unicode="&#57867;" d="M264 256l0 229 58-59 12 13-72 73-12 0-72-73 12-12 58 58 0-229c-67-5-120-60-120-128 0-71 57-128 128-128 71 0 128 57 128 128 0 68-53 123-120 128z m-8-240c-62 0-112 50-112 112 0 62 50 112 112 112 62 0 112-50 112-112 0-62-50-112-112-112z"/>
<glyph unicode="&#57868;" d="M248 376l16 0 0-32-16 0z m0 96l16 0 0-32-16 0z m0-48l16 0 0-32-16 0z m0-96l16 0 0-32-16 0z m-120-200c0-71 57-128 128-128 71 0 128 57 128 128 0 68-53 123-120 128l0 24-16 0 0-24c-67-5-120-60-120-128z m128 112c62 0 112-50 112-112 0-62-50-112-112-112-62 0-112 50-112 112 0 62 50 112 112 112z m66 186l12 13-72 73-12 0-72-73 12-12 61 61 10 0z"/>
<glyph unicode="&#57869;" d="M0 200l512 0 0-16-512 0z m0 64l512 0 0-16-512 0z m0 64l512 0 0-16-512 0z"/>
<glyph unicode="&#57870;" d="M256 512c-68 0-133-27-181-75-48-48-75-113-75-181 0-68 27-133 75-181 48-48 113-75 181-75 68 0 133 27 181 75 48 48 75 113 75 181 0 68-27 133-75 181-48 48-113 75-181 75z m170-426c-46-45-106-70-170-70-64 0-124 25-170 70-45 46-70 106-70 170 0 64 25 124 70 170 46 45 106 70 170 70 64 0 124-25 170-70 45-46 70-106 70-170 0-64-25-124-70-170z m-178 290l16 0 0-176-16 0z m0-208l16 0 0-32-16 0z"/>
<glyph unicode="&#57871;" d="M16 485l154-155 12 12-155 154 69 0 0 16-88 0-8-8 0-88 16 0z m80-485l0 16-69 0 155 154-12 12-154-155 0 69-16 0 0-88 8-8z m400 27l-154 155-12-12 155-154-69 0 0-16 88 0 8 8 0 88-16 0z m-80 485l0-16 69 0-155-154 12-12 154 155 0-69 16 0 0 88-8 8z"/>
<glyph unicode="&#57872;" d="M416 512l0-16 69 0-181-181-194 195-12-12 400-400 12 12-195 194 181 181 0-69 16 0 0 88-8 8z m-320-512l0 16-69 0 181 181 196-196 11 11-401 402-12-12 195-194-181-181 0 69-16 0 0-88 8-8z"/>
<glyph unicode="&#57873;" d="M336 512l0-512 16 0 0 248 133 0-43-42 13-12 57 56 0 12-57 56-12-12 42-42-133 0 0 248z m-279-194l-57-56 0-12 57-56 12 12-42 42 133 0 0-248 16 0 0 512-16 0 0-248-133 0 42 42z"/>
<glyph unicode="&#57874;" d="M0 160l248 0 0-133-42 43-12-13 56-57 12 0 56 57-12 12-42-42 0 133 248 0 0 16-512 0z m264 325l42-43 12 13-56 57-12 0-56-57 12-12 42 42 0-133-248 0 0-16 512 0 0 16-248 0z"/>
<glyph unicode="&#57875;" d="M134 206l-43 42 330 0-43-42 13-12 57 56 0 12-57 56-12-12 42-42-330 0 43 42-13 12-57-56 0-12 57-56z m362 306l16 0 0-512-16 0z m-496 0l16 0 0-512-16 0z"/>
<glyph unicode="&#57876;" d="M206 134l-12-13 56-57 12 0 56 57-12 12-42-42 0 330 42-43 12 13-56 57-12 0-56-57 12-12 42 42 0-330z m-206 378l512 0 0-16-512 0z m0-496l512 0 0-16-512 0z"/>
<glyph unicode="&#57877;" d="M256 20l-106 106-12-13 112-113 11 0 112 113-11 12z m-5 492l-113-113 12-12 106 106 107-106 11 12-112 113z m53-256c0 27-22 48-48 48-27 0-48-21-48-48 0-26 21-48 48-48 26 0 48 22 48 48z m-80 0c0 18 14 32 32 32 17 0 32-14 32-32 0-17-15-32-32-32-18 0-32 15-32 32z m162 106l107-106-107-106 13-12 113 112 0 12-113 112z m-261 1l-12 11-113-112 0-11 113-112 12 11-106 107z"/>
<glyph unicode="&#57878;" d="M362 386l131-130-131-130 13-12 137 136 0 12-137 136z m-225 12l-137-136 0-11 137-136 12 11-130 131 130 130z m119-94c-26 0-48-22-48-48 0-26 22-48 48-48 26 0 48 22 48 48 0 26-22 48-48 48z m0-80c-18 0-32 14-32 32 0 18 14 32 32 32 18 0 32-14 32-32 0-18-14-32-32-32z"/>
<glyph unicode="&#57879;" d="M256 20l-131 130-11-13 136-137 11 0 136 137-11 12z m-5 492l-136-137 11-12 130 130 131-130 11 12-136 137z m53-256c0 27-22 48-48 48-27 0-48-21-48-48 0-26 21-48 48-48 26 0 48 22 48 48z m-80 0c0 18 14 32 32 32 17 0 32-14 32-32 0-17-15-32-32-32-18 0-32 15-32 32z"/>
<glyph unicode="&#57880;" d="M0 352l48 0 0-16-48 0z m128 0l384 0 0-16-384 0z m-128-96l48 0 0-16-48 0z m128 0l384 0 0-16-384 0z m-128-96l48 0 0-16-48 0z m128 0l384 0 0-16-384 0z"/>
<glyph unicode="&#57881;" d="M96 352l320 0 0-16-320 0z m0-96l320 0 0-16-320 0z m0-96l320 0 0-16-320 0z"/>
<glyph unicode="&#57882;" d="M57 318l-57-56 0-12 57-56 12 12-42 42 458 0-43-42 13-12 57 56 0 12-57 56-12-12 42-42-458 0 42 42z"/>
<glyph unicode="&#57883;" d="M256 512c-68 0-133-27-181-75-48-48-75-113-75-181 0-68 27-133 75-181 48-48 113-75 181-75 68 0 133 27 181 75 48 48 75 113 75 181 0 68-27 133-75 181-48 48-113 75-181 75z m170-426c-46-45-106-70-170-70-64 0-124 25-170 70-45 46-70 106-70 170 0 64 25 124 70 170 46 45 106 70 170 70 64 0 124-25 170-70 45-46 70-106 70-170 0-64-25-124-70-170z m-178 226l16 0 0-176-16 0z m0 64l16 0 0-32-16 0z"/>
<glyph unicode="&#57884;" d="M8 512l-8-8 0-496 8-8 496 0 8 8 0 496-8 8z m488-496l-480 0 0 480 480 0z m-263 156l7-4 224 0 0 16-220 0-93 140-7 4-96 0 0-16 92 0z m7 156l224 0 0-16-224 0z"/>
<glyph unicode="&#57885;" d="M8 512l-8-8 0-496 8-8 496 0 8 8 0 496-8 8z m488-496l-480 0 0 480 480 0z m-320 208c-26 0-48-22-48-48 0-26 22-48 48-48 26 0 48 22 48 48l0 32 64 0 0-32c0-26 22-48 48-48 26 0 48 22 48 48 0 26-22 48-48 48l-32 0 0 64 32 0c26 0 48 22 48 48 0 26-22 48-48 48-26 0-48-22-48-48l0-32-64 0 0 32c0 26-22 48-48 48-26 0-48-22-48-48 0-26 22-48 48-48l32 0 0-64z m32-48c0-18-14-32-32-32-18 0-32 14-32 32 0 18 14 32 32 32l32 0z m96 160c0 18 14 32 32 32 18 0 32-14 32-32 0-18-14-32-32-32l-32 0z m0-128l32 0c18 0 32-14 32-32 0-18-14-32-32-32-18 0-32 14-32 32z m-80 80l64 0 0-64-64 0z m-48 16c-18 0-32 14-32 32 0 18 14 32 32 32 18 0 32-14 32-32l0-32z"/>
<glyph unicode="&#57886;" d="M8 512l-8-8 0-496 8-8 496 0 8 8 0 496-8 8z m488-496l-480 0 0 480 480 0z m-48 136l0 208-300 0-86-104 86-104z m-292 192l276 0 0-176-276 0-74 88z m66-150l50 51 50-51 12 12-51 50 51 50-12 12-50-51-50 51-12-12 51-50-51-50z"/>
<glyph unicode="&#57887;" d="M8 512l-8-8 0-496 8-8 496 0 8 8 0 496-8 8z m488-496l-480 0 0 480 480 0z m-233 152l88 130-7 14-176 0-7-14 88-130z m66 128l-73-106-73 106z"/>
<glyph unicode="&#57888;" d="M8 512l-8-8 0-496 8-8 496 0 8 8 0 496-8 8z m488-496l-480 0 0 480 480 0z m-184 152l0 176-14 7-130-88 0-14 130-88z m-16 15l-106 73 106 73z"/>
<glyph unicode="&#57889;" d="M8 512l-8-8 0-496 8-8 496 0 8 8 0 496-8 8z m488-496l-480 0 0 480 480 0z m-346 134l-59 58 357 0 0 168-96 0 0-16 80 0 0-136-341 0 59 58-13 12-73-72 0-12 73-72z"/>
<glyph unicode="&#57890;" d="M8 512l-8-8 0-496 8-8 496 0 8 8 0 496-8 8z m488-496l-480 0 0 480 480 0z m-152 233l0 14-130 88-14-7 0-176 14-7z m-128 80l106-73-106-73z"/>
<glyph unicode="&#57891;" d="M8 512l-8-8 0-496 8-8 496 0 8 8 0 496-8 8z m488-496l-480 0 0 480 480 0z m-304 200l0-72 8-8 112 0 8 8 0 72 56 0 6 15-120 145-12 0-120-145 6-15z m64 140l103-124-47 0-8-8 0-72-96 0 0 72-8 8-47 0z"/>
<glyph unicode="&#57892;" d="M8 512l-8-8 0-496 8-8 496 0 8 8 0 496-8 8z m488-496l-480 0 0 480 480 0z m-190 190l13-12 57 56 0 12-57 56-12-12 42-42-253 0 0-16 253 0z m86 122l16 0 0-144-16 0z"/>
<glyph unicode="&#57893;" d="M8 512l-8-8 0-496 8-8 496 0 8 8 0 496-8 8z m488-496l-480 0 0 480 480 0z m-152 168l7 14-88 130-14 0-88-130 7-14z m-88 122l73-106-146 0z"/>
<glyph unicode="&#57894;" d="M289 398l-137-136 0-12 137-136 12 12-130 130 130 130z"/>
<glyph unicode="&#57895;" d="M269 387l-12 11-137-136 0-11 137-136 12 11-130 131z m108 11l-137-136 0-11 137-136 12 11-130 131 130 130z"/>
<glyph unicode="&#57896;" d="M112 272l288 0 0-16-288 0z"/>
<glyph unicode="&#57897;" d="M70 306l-13 12-57-56 0-12 57-56 12 12-42 42 189 0 0 16-189 0z m226-58l189 0-43-42 13-12 57 56 0 12-57 56-12-12 42-42-189 0z m-46 264l-56-57 12-12 42 42 0-189 16 0 0 189 42-43 12 13-56 57z m-2-296l0-189-42 43-12-13 56-57 12 0 56 57-12 12-42-42 0 189z"/>
<glyph unicode="&#57898;" d="M0 250l57-56 12 12-42 42 221 0 0-221-42 43-12-13 56-57 12 0 56 57-12 12-42-42 0 221 221 0-43-42 13-12 57 56 0 12-57 56-12-12 42-42-221 0 0 221 42-43 12 13-56 57-12 0-56-57 12-12 42 42 0-221-221 0 43 42-13 12-57-56z"/>
<glyph unicode="&#57899;" d="M262 96l56 57-12 12-42-42 0 349-16 0 0-349-42 43-12-13 56-57z m-262-48l512 0 0-16-512 0z"/>
<glyph unicode="&#57900;" d="M166 206l-43 42 349 0 0 16-349 0 43 42-13 12-57-56 0-12 57-56z m-134 306l16 0 0-512-16 0z"/>
<glyph unicode="&#57901;" d="M346 206l13-12 57 56 0 12-57 56-12-12 42-42-349 0 0-16 349 0z m118 306l16 0 0-512-16 0z"/>
<glyph unicode="&#57902;" d="M264 40l0 349 42-43 12 13-56 57-12 0-56-57 12-12 42 42 0-349z m-264 440l512 0 0-16-512 0z"/>
<glyph unicode="&#57903;" d="M248 400l0-136-136 0 0-16 136 0 0-136 16 0 0 136 136 0 0 16-136 0 0 136z"/>
<glyph unicode="&#57905;" d="M354 381l-98-99-99 98-11-11 99-98-98-99 11-11 98 99 99-98 11 11-99 98 98 99z"/>
<glyph unicode="&#57906;" d="M360 262l-137 136-12-12 130-130-131-130 13-12 137 136z"/>
<glyph unicode="&#57907;" d="M242 386l131-130-131-130 13-12 137 136 0 12-137 136z m30-124l-137 136-12-12 130-130-131-130 13-12 137 136z"/>
<glyph unicode="&#57908;" d="M264 496c62 0 120-24 164-68 81-81 91-211 22-303l-34-34 0 69-16 0 0-88 8-8 88 0 0 16-69 0 35 34 0 1c74 98 64 238-23 324-46 47-109 73-175 73z m-202-109l34 34 0-69 16 0 0 88-8 8-88 0 0-16 69 0-35-34 0-1c-74-98-64-238 23-324 46-47 109-73 175-73l0 16c-62 0-120 24-164 68-81 81-91 211-22 303z"/>
<glyph unicode="&#57912;" d="M14 2l162 163 0-69 16 0 0 88-8 8-88 0 0-16 69 0-163-162z m306 94l16 0 0 69 162-163 12 12-163 162 69 0 0 16-88 0-8-8z m0 320l0-88 8-8 88 0 0 16-69 0 163 162-12 12-162-163 0 69z m-224-96l88 0 8 8 0 88-16 0 0-69-162 163-12-12 163-162-69 0z"/>
<glyph unicode="&#57913;" d="M14 222l-12-12 208-208 12 12-99 98 101 101 0-69 16 0 0 88-8 8-88 0 0-16 69 0-101-101z m258 146l0-88 8-8 88 0 0 16-69 0 101 101 98-99 12 12-208 208-12-12 99-98-101-101 0 69z"/>
<glyph unicode="&#57914;" d="M368 272l0 16-69 0 211 210-12 12-210-211 0 69-16 0 0-88 8-8z m-354-270l210 211 0-69 16 0 0 88-8 8-88 0 0-16 69 0-211-210z"/>
<glyph unicode="&#57915;" d="M366 306l-13 12-57-56 0-12 57-56 12 12-42 42 189 0 0 16-189 0z m-220 0l43-42-189 0 0-16 189 0-43-42 13-12 57 56 0 12-57 56z"/>
<glyph unicode="&#57916;" d="M32 512l0-512 16 0 0 248 141 0-43-42 13-12 57 56 0 12-57 56-12-12 42-42-141 0 0 248z m321-194l-57-56 0-12 57-56 12 12-42 42 141 0 0-248 16 0 0 512-16 0 0-248-141 0 42 42z"/>
<glyph unicode="&#57917;" d="M0 464l248 0 0-141-42 43-12-13 56-57 12 0 56 57-12 12-42-42 0 141 248 0 0 16-512 0z m264-275l42-43 12 13-56 57-12 0-56-57 12-12 42 42 0-141-248 0 0-16 512 0 0 16-248 0z"/>
<glyph unicode="&#57918;" d="M264 323l0 189-16 0 0-189-42 43-12-13 56-57 12 0 56 57-12 12z m-14-107l-56-57 12-12 42 42 0-189 16 0 0 189 42-43 12 13-56 57z"/>
<glyph unicode="&#57919;" d="M112 149l144-153 144 153 0 363-288 0z m16 347l256 0 0-341-128-135-128 135z"/>
<glyph unicode="&#57920;" d="M149 400l-153-144 153-144 363 0 0 288z m347-272l-341 0-135 128 135 128 341 0z"/>
<glyph unicode="&#57921;" d="M0 400l0-288 363 0 153 144-153 144z m357-272l-341 0 0 256 341 0 135-128z"/>
<glyph unicode="&#57922;" d="M256 516l-144-153 0-363 288 0 0 363z m128-500l-256 0 0 341 128 135 128-135z"/>
<glyph unicode="&#57923;" d="M368 496l0 16-160 0 0-485-58 59-12-13 72-73 12 0 72 73-12 12-58-58 0 469z"/>
<glyph unicode="&#57924;" d="M144 496l144 0 0-469-58 59-12-13 72-73 12 0 72 73-12 12-58-58 0 485-160 0z"/>
<glyph unicode="&#57925;" d="M86 362l-13 12-73-72 0-12 73-72 12 12-58 58 469 0 0-144 16 0 0 160-485 0z"/>
<glyph unicode="&#57926;" d="M496 224l-469 0 59 58-13 12-73-72 0-12 73-72 12 12-58 58 485 0 0 160-16 0z"/>
<glyph unicode="&#57927;" d="M16 288l469 0-59-58 13-12 73 72 0 12-73 72-12-12 58-58-485 0 0-160 16 0z"/>
<glyph unicode="&#57928;" d="M426 150l13-12 73 72 0 12-73 72-12-12 58-58-469 0 0 144-16 0 0-160 485 0z"/>
<glyph unicode="&#57929;" d="M144 16l0-16 160 0 0 485 58-59 12 13-72 73-12 0-72-73 12-12 58 58 0-469z"/>
<glyph unicode="&#57930;" d="M368 0l0 16-144 0 0 469 58-59 12 13-72 73-12 0-72-73 12-12 58 58 0-485z"/>
<glyph unicode="&#57931;" d="M248 512l0-485-58 59-12-13 72-73 12 0 72 73-12 12-58-58 0 485z"/>
<glyph unicode="&#57932;" d="M248 224l16 0 0-32-16 0z m0 144l16 0 0-32-16 0z m0-96l16 0 0-32-16 0z m0 48l16 0 0-32-16 0z m0 96l16 0 0-32-16 0z m0 96l16 0 0-32-16 0z m0-48l16 0 0-32-16 0z m0-288l16 0 0-32-16 0z m0-48l16 0 0-32-16 0z m0-48l16 0 0-8-16 0z m2-80l12 0 72 73-12 12-66-66-66 67-12-13z"/>
<glyph unicode="&#57933;" d="M86 322l-13 12-73-72 0-12 73-72 12 12-58 58 485 0 0 16-485 0z"/>
<glyph unicode="&#57934;" d="M336 264l32 0 0-16-32 0z m-48 0l32 0 0-16-32 0z m-48 0l32 0 0-16-32 0z m144 0l32 0 0-16-32 0z m48 0l32 0 0-16-32 0z m48 0l32 0 0-16-32 0z m-384 0l32 0 0-16-32 0z m48 0l32 0 0-16-32 0z m48 0l32 0 0-16-32 0z m-144 0l32 0 0-16-32 0z m25 70l-73-72 0-12 73-72 12 12-58 58 5 0 0 16-5 0 58 58z"/>
<glyph unicode="&#57935;" d="M426 190l13-12 73 72 0 12-73 72-12-12 58-58-485 0 0-16 485 0z"/>
<glyph unicode="&#57936;" d="M192 264l32 0 0-16-32 0z m-144 0l32 0 0-16-32 0z m48 0l32 0 0-16-32 0z m48 0l32 0 0-16-32 0z m-144 0l32 0 0-16-32 0z m432 0l32 0 0-16-32 0z m-48 0l32 0 0-16-32 0z m-48 0l32 0 0-16-32 0z m-48 0l32 0 0-16-32 0z m-48 0l32 0 0-16-32 0z m199-86l73 72 0 12-73 72-12-12 58-58-5 0 0-16 5 0-58-58z"/>
<glyph unicode="&#57937;" d="M264 0l0 485 58-59 12 13-72 73-12 0-72-73 12-12 58 58 0-485z"/>
<glyph unicode="&#57938;" d="M248 80l16 0 0-32-16 0z m0 288l16 0 0-32-16 0z m0-240l16 0 0-32-16 0z m0 96l16 0 0-32-16 0z m0 192l16 0 0-32-16 0z m0-240l16 0 0-32-16 0z m0 96l16 0 0-32-16 0z m0 192l16 0 0-32-16 0z m0-432l16 0 0-32-16 0z m0 288l16 0 0-32-16 0z m-58 106l58 59 0-5 16 0 0 5 58-59 12 13-72 73-12 0-72-73z"/>
<glyph unicode="&#57939;" d="M200 163l-90 91-12-13 96-97 12 0 192 193-12 12z m-200-163l512 0 0 512-512 0z m16 496l480 0 0-480-480 0z"/>
<glyph unicode="&#57940;" d="M256 195l-130 131-12-13 136-137 12 0 136 137-12 12z m-256-195l512 0 0 512-512 0z m16 496l480 0 0-480-480 0z"/>
<glyph unicode="&#57941;" d="M192 376l-16 0 0-192 8-8 192 0 0 16-184 0z m-192-376l512 0 0 512-512 0z m16 496l480 0 0-480-480 0z"/>
<glyph unicode="&#57942;" d="M320 192l-184 0 0-16 192 0 8 8 0 192-16 0z m-320-192l512 0 0 512-512 0z m16 496l480 0 0-480-480 0z"/>
<glyph unicode="&#57943;" d="M289 398l-137-136 0-12 137-136 12 12-130 130 130 130z m-289-398l512 0 0 512-512 0z m16 496l480 0 0-480-480 0z"/>
<glyph unicode="&#57944;" d="M112 272l288 0 0-16-288 0z m-112-272l512 0 0 512-512 0z m16 496l480 0 0-480-480 0z"/>
<glyph unicode="&#57945;" d="M248 112l16 0 0 136 136 0 0 16-136 0 0 136-16 0 0-136-136 0 0-16 136 0z m-248 400l0-512 512 0 0 512z m496-496l-480 0 0 480 480 0z"/>
<glyph unicode="&#57946;" d="M365 370l-11 11-98-99-99 98-11-11 99-98-98-99 11-11 98 99 99-98 11 11-99 98z m-365-370l512 0 0 512-512 0z m16 496l480 0 0-480-480 0z"/>
<glyph unicode="&#57947;" d="M210 386l131-130-131-130 13-12 137 136 0 12-137 136z m-210-386l512 0 0 512-512 0z m16 496l480 0 0-480-480 0z"/>
<glyph unicode="&#57948;" d="M250 336l-136-137 12-12 130 130 130-131 12 13-136 137z m-250-336l512 0 0 512-512 0z m16 496l480 0 0-480-480 0z"/>
<glyph unicode="&#57949;" d="M176 328l0-192 16 0 0 184 184 0 0 16-192 0z m-176-328l512 0 0 512-512 0z m16 496l480 0 0-480-480 0z"/>
<glyph unicode="&#57950;" d="M136 336l0-16 184 0 0-184 16 0 0 192-8 8z m-136-336l512 0 0 512-512 0z m16 496l480 0 0-480-480 0z"/>
<glyph unicode="&#57951;" d="M232 512l-232 0 0-232 232 0z m-16-216l-200 0 0 200 200 0z m64-16l232 0 0 232-232 0z m16 216l200 0 0-200-200 0z m-64-264l-232 0 0-232 232 0z m-16-216l-200 0 0 200 200 0z m64-16l232 0 0 232-232 0z m16 216l200 0 0-200-200 0z"/>
<glyph unicode="&#57952;" d="M416 512l0-16 69 0-187-186 12-12 186 187 0-69 16 0 0 88-8 8z m-214-298l-186-187 0 69-16 0 0-88 8-8 88 0 0 16-69 0 187 186z m112-28l-128 128 12 12 128-128z"/>
<glyph unicode="&#57953;" d="M496 27l-186 187-12-12 187-186-69 0 0-16 88 0 8 8 0 88-16 0z m-294 271l12 12-187 186 69 0 0 16-88 0-8-8 0-88 16 0 0 69z m-16-100l128 128 12-12-128-128z"/>
<glyph unicode="&#57954;" d="M416 512l0-16 69 0-229-229-242 243-12-12 243-242-229-229 0 69-16 0 0-88 8-8 88 0 0 16-69 0 229 229 242-243 12 12-243 242 229 229 0-69 16 0 0 88-8 8z"/>
<glyph unicode="&#57955;" d="M496 27l-229 229 243 242-12 12-242-243-229 229 69 0 0 16-88 0-8-8 0-88 16 0 0 69 229-229-243-242 12-12 242 243 229-229-69 0 0-16 88 0 8 8 0 88-16 0z"/>
<glyph unicode="&#57956;" d="M434 314l51-50-181 0 0-16 181 0-51-50 13-12 65 64 0 12-65 64z m-356 0l-13 12-65-64 0-12 65-64 12 12-50 50 181 0 0 16-181 0z m170 30l16 0 0-176-16 0z"/>
<glyph unicode="&#57957;" d="M434 314l51-50-221 0 0 248-16 0 0-248-221 0 51 50-13 12-65-64 0-12 65-64 12 12-50 50 221 0 0-248 16 0 0 248 221 0-51-50 13-12 65 64 0 12-65 64z"/>
<glyph unicode="&#57958;" d="M250 512l-64-65 12-12 50 50 0-181 16 0 0 181 50-51 12 13-64 65z m14-485l0 181-16 0 0-181-50 51-12-13 64-65 12 0 64 65-12 12z m-96 237l176 0 0-16-176 0z"/>
<glyph unicode="&#57960;" d="M439 98l73 72 0 12-73 72-12-12 58-58-413 0 0-16 413 0-58-58z m-365 316l-74-72 0-12 74-72 12 12-58 58 412 0 0 16-412 0 58 58z"/>
<glyph unicode="&#57961;" d="M344 72l1 413 58-59 11 13-72 73-11 0-72-73 11-12 59 58-1-413z m-245 1l72-73 11 0 72 73-11 12-58-58-1 413-16 0 1-413-59 58z"/>
<glyph unicode="&#57962;" d="M398 199l-136 137-12 0-136-137 12-12 130 130 130-130z"/>
<glyph unicode="&#57963;" d="M250 392l-136-137 12-12 130 130 130-130 12 12-136 137z m0-120l-136-137 12-12 130 130 130-130 12 12-136 137z"/>
<glyph unicode="&#57964;" d="M192 320l184 0 0 16-192 0-8-8 0-192 16 0z"/>
<glyph unicode="&#57965;" d="M336 136l0 192-8 8-192 0 0-16 184 0 0-184z"/>
<glyph unicode="&#57966;" d="M206 70l-12-13 56-57 12 0 56 57-12 12-42-42 0 458 42-43 12 13-56 57-12 0-56-57 12-12 42 42 0-458z"/>
<glyph unicode="&#98;" d="M170 448l-122-341 16-6 38 107 156 0 38-107 16 6-122 341z m-63-224l73 203 73-203z m341-88l0 80c0 19-14 48-52 48-36 0-50-18-50-19l12-10c1 1 11 13 38 13 26 0 36-19 36-32l0-16-32 0c-22 0-64-10-64-48 0-31 17-48 48-48 22 0 37 7 48 20 3-10 16-20 24-20l0 16c-8 0-8 13-8 16z m-64-16c-14 0-32 3-32 32 0 31 46 32 48 32l32 0 0-16c0-40-26-48-48-48z m-384-120l512 0 0 512-512 0z m16 496l480 0 0-480-480 0z"/>
<glyph unicode="&#99;" d="M40 240l0-144 208 0 0-96 16 0 0 96 208 0 0 144-208 0 0 32 160 0 0 144-160 0 0 96-16 0 0-96-160 0 0-144 160 0 0-32z m64 160l304 0 0-112-304 0z m352-288l-400 0 0 112 400 0z"/>
<glyph unicode="&#100;" d="M74 166l-1-1-75-151 16-16 151 75 350 351-91 91z m17-6l261 261 69-69-261-261z m272 272l21 21 69-69-21-21z m-281-286l64-64-61-30-6 27-27 6z m-38-75l21-6 6-21-53-26z m420 324l-69 69 29 29 69-69z"/>
<glyph unicode="&#101;" d="M496 312l0 136-48 0 0 64-400 0 0-64-32 0 0-16 32 0 0-72 400 0 0 72 32 0 0-104-232 0 0-144-32 0 0-184 80 0 0 184-32 0 0 128z m-64 64l-368 0 0 120 368 0z m-152-208l0-152-48 0 0 152z"/>
<glyph unicode="&#102;" d="M440 0l-368 0 0 376 368 0z m-352 16l336 0 0 344-336 0z m256 304l-16 0 0 104c0 40-32 72-72 72-40 0-72-32-72-72l0-104-16 0 0 104c0 49 39 88 88 88 49 0 88-39 88-88z m-32-200l-112 0c-20 0-32 12-32 32 0 10 9 28 26 31 7 25 32 49 62 49 34 0 60-21 64-49 16-4 24-21 24-31 0-20-12-32-32-32z m-112 48c-11 0-16-12-16-16 0-12 4-16 16-16l112 0c11 0 16 5 16 16 0 4-5 16-16 16l-8 0 0 8c0 26-25 40-48 40-23 0-44-22-48-42l-1-6z"/>
<glyph unicode="&#103;" d="M256 0c-68 0-133 27-181 75-48 48-75 113-75 181 0 68 27 133 75 181 48 48 113 75 181 75 68 0 133-27 181-75 48-48 75-113 75-181 0-68-27-133-75-181-48-48-113-75-181-75z m0 496c-64 0-124-25-170-70-45-46-70-106-70-170 0-64 25-124 70-170 46-45 106-70 170-70 64 0 124 25 170 70 45 46 70 106 70 170 0 64-25 124-70 170-46 45-106 70-170 70z m0-368c-67 0-104 45-104 128 0 83 37 128 104 128 77 0 87-37 88-38l-16-4c0 0-8 26-72 26-73 0-88-61-88-112 0-51 15-112 88-112 64 0 72 26 72 26l16-4c-1-1-11-38-88-38z m-136 152l152 0 0-16-152 0z m0-32l152 0 0-16-152 0z"/>
<glyph unicode="&#105;" d="M264 485l50-51 12 13-64 65-12 0-64-65 12-12 50 50 0-221-248 0 0-16 248 0 0-221-50 51-12-13 64-65 12 0 64 65-12 12-50-50 0 221 248 0 0 16-248 0z"/>
<glyph unicode="&#104;" d="M256 0c-68 0-133 27-181 75-48 48-75 113-75 181 0 68 27 133 75 181 48 48 113 75 181 75 68 0 133-27 181-75 48-48 75-113 75-181 0-68-27-133-75-181-48-48-113-75-181-75z m0 496c-64 0-124-25-170-70-45-46-70-106-70-170 0-64 25-124 70-170 46-45 106-70 170-70 64 0 124 25 170 70 45 46 70 106 70 170 0 64-25 124-70 170-46 45-106 70-170 70z m0-368c-67 0-104 45-104 128 0 83 37 128 104 128 77 0 87-37 88-38l-16-4c0 0-8 26-72 26-73 0-88-61-88-112 0-51 15-112 88-112 64 0 72 26 72 26l16-4c-1-1-11-38-88-38z m-8 288l16 0 0-320-16 0z"/>
<glyph unicode="&#106;" d="M264 512l0-16c5 0 10 0 15-1l2 16c-6 1-11 1-17 1z m34-2l-3-16c11-2 22-4 32-7l4 16c-11 3-22 5-33 7z m207-303l-15 3c-3-10-6-20-10-30l15-6c4 10 8 21 10 33z m7 51l-16 0c0-10-1-21-3-32l16-2c2 11 3 22 3 34z m-75-168l-11 11 23 24 12-12z m-89 407l-6-15c10-3 20-8 30-13l7 15c-10 5-20 10-31 13z m140-339l-14 7c-5-10-10-19-16-28l13-9c7 10 12 20 17 30z m4 148c2-10 3-21 4-32l16 1c-1 12-2 23-4 34z m-37 89c6-9 12-18 17-28l14 8c-5 10-11 20-17 29z m23-42c4-10 8-20 11-31l15 4c-3 11-6 22-11 33z m-43 91l-11-12c1-1 3-3 4-4 6-6 12-13 18-20l12 10c-6 7-12 15-19 21-1 2-2 3-4 5z m-49 17c9-5 18-11 26-18l10 12c-9 7-18 14-28 20z m30-374l0 73-16 0 0-88 8-8 88 0 0 16-73 0z m-168-71c-5 0-10 0-15 1l-2-16c6-1 11-1 17-1z m-158 41c9-7 18-14 28-20l8 14c-9 5-18 11-26 18z m-90 180c1-12 2-23 4-34l16 3c-2 10-3 21-4 32z m8-51c3-11 6-22 11-33l15 6c-4 10-8 20-11 31z m14 116c3 10 6 20 10 30l-15 6c-4-10-8-21-10-33z m118-259l-7-15c10-5 20-10 31-13l6 15c-10 3-20 8-30 13z m-140 211l16 0c0 10 1 21 3 32l-16 2c-2-11-3-22-3-34z m24 100l14-7c5 10 10 19 16 28l-13 9c-7-10-12-20-17-30z m2-217c5-10 11-20 17-29l14 9c-6 9-12 18-17 28z m51-69l11 12c-1 1-3 3-4 4-6 6-12 13-18 20l-12-10c6-7 12-15 19-21 1-2 2-3 4-5z m-14 319l-12 12 24 23 11-11z m122-362l-4-16c11-3 22-5 33-7l3 16c-11 2-22 4-32 7z m-169 423l0-16 73 0 7-7 0-73 16 0 0 88-8 8z"/>
<glyph unicode="&#107;" d="M248 72l16 0 0-32-16 0z m0 48l16 0 0-32-16 0z m0 96l16 0 0-32-16 0z m0-48l16 0 0-32-16 0z m136 216c0 71-57 128-128 128-71 0-128-57-128-128 0-68 53-123 120-128l0-24 16 0 0 24c67 5 120 60 120 128z m-128-112c-62 0-112 50-112 112 0 62 50 112 112 112 62 0 112-50 112-112 0-62-50-112-112-112z m-66-186l-12-13 72-73 12 0 72 73-12 12-61-61-10 0z"/>
<glyph unicode="&#108;" d="M256 512c-71 0-128-57-128-128 0-68 53-123 120-128l0-229-58 59-12-13 72-73 12 0 72 73-12 12-58-58 0 229c67 5 120 60 120 128 0 71-57 128-128 128z m0-240c-62 0-112 50-112 112 0 62 50 112 112 112 62 0 112-50 112-112 0-62-50-112-112-112z"/>
</font>
</defs>
</svg>
